eztv.wf | eztvstatus.org
Search title:  
TV Packs only
 

American Auto S02E02 Most Hated CEO 1080p AMZN WEBRip DDP5 1 x264-NTb EZTV

Episode Breakdown
American Auto
American Auto TV Show S02E02

Season: 2
Episode: 2
Air Date: 31 January, 2023
Download Links
     Torrent Download     Magnet Download
     Anonymous Download
Added 1 year ago by eztv (verified).
Tracker Statistics
Seeds: 0
Peers: 0
Stats generated @ 03:37 on 26th May 2024
Torrent Info
Torrent File: American.Auto.S02E02.Most.Hated.CEO.1080p.AMZN.WEB-DL.DDP5.1.H.264-NTb[eztv.re].mkv
Torrent Hash: 0FAC6E96B801B7B97F7F56739EC4728D637364E8
Filesize: 1.55 GB
Released: 1st Feb 2023

File Format: MKV (Matroska)
Resolution: 1920x1080 px
Aspect Ratio: 16:9
Alternate Releases S L
American Auto S02E02 1080p WEB h264-GOSSIP 1 2
American Auto S02E02 720p WEB h264-GOSSIP 0 0
American Auto S02E02 480p x264-mSD 0 0
American Auto S02E02 720p HEVC x265-MeGusta 0 0
American Auto S02E02 XviD-AFG 0 0
American Auto S02E02 1080p HEVC x265-MeGusta 0 0

American Auto S02E02 - Most Hated CEO

Summary:

Ian and Sadie attempt to rehab Katherine's image from the pawl controversy by staging a phony video with Katherine's family and a visit to "Late Night with Seth Meyers." 



American Auto S02E02 Most Hated CEO 1080p AMZN WEBRip DDP5 1 x264-NTb EZTV
American Auto S2E2 Screenshot
General
Unique ID: 106286903332369816285977303209065227331 (0x4FF61CEC6A221A6276D7D963DF82A443)
Complete name: American.Auto.S02E02.Most.Hated.CEO.1080p.AMZN.WEB-DL.DDP5.1.H.264-NTb.mkv
Format: Matroska
Format version: Version 4
File size: 1.55 GiB
Duration: 21 min 31 s
Overall bit rate: 10.3 Mb/s
Writing application: mkvmerge v68.0.0 ('The Curtain') 64-bit
Writing library: libebml v1.4.2 + libmatroska v1.6.4

Video
ID: 1
Format: AVC
Format/Info: Advanced Video Codec
Format profile: High@L4
Format settings: CABAC / 4 Ref Frames
Format settings, CABAC: Yes
Format settings, Reference frames: 4 frames
Codec ID: V_MPEG4/ISO/AVC
Duration: 21 min 31 s
Bit rate mode: Constant
Bit rate: 10 000 kb/s
Width: 1 920 pixels
Height: 1 080 pixels
Display aspect ratio: 16:9
Frame rate mode: Constant
Frame rate: 23.976 (24000/1001) FPS
Color space: YUV
Chroma subsampling: 4:2:0
Bit depth: 8 bits
Scan type: Progressive
Bits/(Pixel*Frame): 0.201
Stream size: 1.46 GiB (94%)
Default: Yes
Forced: No
Color range: Limited
Color primaries: BT.709
Transfer characteristics: BT.709
Matrix coefficients: BT.709

Audio
ID: 2
Format: E-AC-3
Format/Info: Enhanced AC-3
Commercial name: Dolby Digital Plus
Codec ID: A_EAC3
Duration: 21 min 31 s
Bit rate mode: Constant
Bit rate: 640 kb/s
Channel(s): 6 channels
Channel layout: L R C LFE Ls Rs
Sampling rate: 48.0 kHz
Frame rate: 31.250 FPS (1536 SPF)
Compression mode: Lossy
Stream size: 98.5 MiB (6%)
Language: English (US)
Service kind: Complete Main
Default: Yes
Forced: No

Text #1
ID: 3
Format: UTF-8
Codec ID: S_TEXT/UTF8
Codec ID/Info: UTF-8 Plain Text
Duration: 21 min 19 s
Bit rate: 140 b/s
Frame rate: 0.515 FPS
Count of elements: 659
Stream size: 21.9 KiB (0%)
Language: English (US)
Default: No
Forced: No

Text #2
ID: 4
Format: UTF-8
Codec ID: S_TEXT/UTF8
Codec ID/Info: UTF-8 Plain Text
Duration: 21 min 19 s
Bit rate: 145 b/s
Frame rate: 0.533 FPS
Count of elements: 682
Stream size: 22.7 KiB (0%)
Title: SDH
Language: English (US)
Default: No
Forced: No
ssl  EZTV RSS EZTV Status | EZTV API | DMCA: [email protected]