eztv.wf | eztvstatus.org
Search title:  
TV Packs only
 

American Auto S02E04 WEBRip x264-LAMA EZTV

Episode Breakdown
American Auto
American Auto TV Show S02E04

Season: 2
Episode: 4
Air Date: 14 February, 2023
Download Links
     Torrent Download     Magnet Download
     Anonymous Download
Added 1 year ago by eztv (verified).
Tracker Statistics
Seeds: 0
Peers: 0
Stats generated @ 14:11 on 27th May 2024
Torrent Info
Torrent File: American.Auto.S02E04.WEBRip.x264-LAMA[eztv.re].mp4
Torrent Hash: 5DDDC0AD4C252902D652A246895E0C27A050F01A
Filesize: 211 MB
Released: 15th Feb 2023

File Format: MP4 (MPEG-4)
Resolution: 720x404 px
Aspect Ratio: 16:9
Alternate Releases S L
American Auto S02E04 720p HDTV x264-SYNCOPY 2 0
American Auto S02E04 480p x264-mSD 0 0
American Auto S02E04 720p HEVC x265-MeGusta 0 0
American Auto S02E04 720p WEB h264-GOSSIP 0 0
American Auto S02E04 1080p HEVC x265-MeGusta 0 0
American Auto S02E04 1080p WEB h264-GOSSIP 0 0
American Auto S02E04 XviD-AFG 0 0

American Auto S02E04 - Cost Cutting

Summary:

In an effort to reduce costs, Jack, Cyrus and Elliot have to let go of some employees while Wesley and Dori search for office savings. Sadie helps prep Katherine for her first post-crisis TV interview. 



American Auto S02E04 WEBRip x264-LAMA EZTV
American Auto S2E4 Screenshot
General
Complete name: American.Auto.S02E04.WEBRip.x264-LAMA.mp4
Format: MPEG-4
Format profile: Base Media
Codec ID: isom (isom/iso2/avc1/mp41)
File size: 211 MiB
Duration: 21 min 31 s
Overall bit rate: 1 369 kb/s
Encoded date: UTC 2023-02-15 06:46:43
Tagged date: UTC 2023-02-15 06:46:43

Video
ID: 1
Format: AVC
Format/Info: Advanced Video Codec
Format profile: [email protected]
Format settings: CABAC / 5 Ref Frames
Format settings, CABAC: Yes
Format settings, Reference frames: 5 frames
Codec ID: avc1
Codec ID/Info: Advanced Video Coding
Duration: 21 min 31 s
Bit rate: 1 100 kb/s
Width: 720 pixels
Height: 400 pixels
Display aspect ratio: 16:9
Frame rate mode: Constant
Frame rate: 23.976 (24000/1001) FPS
Color space: YUV
Chroma subsampling: 4:2:0
Bit depth: 8 bits
Scan type: Progressive
Bits/(Pixel*Frame): 0.159
Stream size: 171 MiB (81%)
Title: - American.Auto.S02E04.WEBRip.x264-LAMA
Writing library: x264 core 152
Encoding settings: cabac=1 / ref=5 / deblock=1:-1:-1 / analyse=0x3:0x113 / me=umh / subme=9 / psy=1 / psy_rd=1.00:0.15 / mixed_ref=1 / me_range=16 / chroma_me=1 / trellis=2 / 8x8dct=1 / cqm=0 / deadzone=21,11 / fast_pskip=1 / chroma_qp_offset=-3 / threads=12 / lookahead_threads=1 / sliced_threads=0 / nr=0 / decimate=1 / interlaced=0 / bluray_compat=0 / constrained_intra=0 / bframes=3 / b_pyramid=2 / b_adapt=2 / b_bias=0 / direct=3 / weightb=1 / open_gop=0 / weightp=2 / keyint=250 / keyint_min=23 / scenecut=40 / intra_refresh=0 / rc_lookahead=50 / rc=abr / mbtree=1 / bitrate=1100 / ratetol=1.0 / qcomp=0.60 / qpmin=0 / qpmax=69 / qpstep=4 / ip_ratio=1.40 / aq=1:1.00
Encoded date: UTC 2023-02-15 06:46:43
Tagged date: UTC 2023-02-15 06:46:43
Codec configuration box: avcC

Audio
ID: 2
Format: AAC LC
Format/Info: Advanced Audio Codec Low Complexity
Codec ID: mp4a-40-2
Duration: 21 min 31 s
Duration_LastFrame: -11 ms
Bit rate mode: Constant
Bit rate: 256 kb/s
Channel(s): 2 channels
Channel layout: L R
Sampling rate: 48.0 kHz
Frame rate: 46.875 FPS (1024 SPF)
Compression mode: Lossy
Stream size: 39.4 MiB (19%)
Title: - American.Auto.S02E04.WEBRip.x264-LAMA
Language: English
Default: Yes
Alternate group: 1
Encoded date: UTC 2023-02-15 06:46:43
Tagged date: UTC 2023-02-15 06:46:43
ssl  EZTV RSS EZTV Status | EZTV API | DMCA: [email protected]