eztv.wf | eztvstatus.org
Search title:  
TV Packs only
 

Star Wars The Bad Batch S02E13 Pabu 1080p DSNP WEBRip DDP5 1 x264-NTb EZTV

Episode Breakdown
Star Wars: The Bad Batch
Star Wars: The Bad Batch TV Show S02E13

Season: 2
Episode: 13
Air Date: 15 March, 2023
Download Links
     Torrent Download     Magnet Download
     Anonymous Download
Added 1 year ago by eztv (verified).
Tracker Statistics
Seeds: 0
Peers: 1
Stats generated @ 14:27 on 29th May 2024
Torrent Info
Torrent File: Star.Wars.The.Bad.Batch.S02E13.Pabu.1080p.DSNP.WEB-DL.DDP5.1.H.264-NTb[eztv.re].mkv
Torrent Hash: DAE79721E8215AEF2E5B68617503A0EC98862849
Filesize: 1.20 GB
Released: 15th Mar 2023

File Format: MKV (Matroska)
Resolution: 1920x1080 px
Aspect Ratio: 16:9
Alternate Releases S L
Star Wars The Bad Batch S02E13 1080p WEB H264-GGEZ 17 2
Star Wars The Bad Batch S02E13 MULTI 1080p WEB H264-HiggsBoson 0 1
Star Wars The Bad Batch S02E13 1080p HEVC x265-MeGusta 10 1
Star Wars The Bad Batch S02E13 XviD-AFG 1 1
Star Wars The Bad Batch S02E13 Pabu 720p DSNP WEBRip DDP5 1 x264-NTb 1 1
Star Wars The Bad Batch S02E13 720p HEVC x265-MeGusta 0 0

Star Wars: The Bad Batch S02E13 - Pabu

Summary:

The team takes refuge and finds new allies.



Star Wars The Bad Batch S02E13 Pabu 1080p DSNP WEBRip DDP5 1 x264-NTb EZTV
Star Wars: The Bad Batch S2E13 Screenshot
General
Unique ID: 321475888041239050643176198190613751501 (0xF1DA0100C044A97B73E64FFB840566CD)
Complete name: Star.Wars.The.Bad.Batch.S02E13.Pabu.1080p.DSNP.WEB-DL.DDP5.1.H.264-NTb.mkv
Format: Matroska
Format version: Version 4
File size: 1.20 GiB
Duration: 25 min 32 s
Overall bit rate mode: Variable
Overall bit rate: 6 723 kb/s
Writing application: mkvmerge v74.0.0 ('You Oughta Know') 64-bit
Writing library: libebml v1.4.4 + libmatroska v1.7.1

Video
ID: 1
Format: AVC
Format/Info: Advanced Video Codec
Format profile: High@L4
Format settings: CABAC / 4 Ref Frames
Format settings, CABAC: Yes
Format settings, Reference frames: 4 frames
Codec ID: V_MPEG4/ISO/AVC
Duration: 25 min 32 s
Bit rate mode: Variable
Bit rate: 6 463 kb/s
Maximum bit rate: 12.7 Mb/s
Width: 1 920 pixels
Height: 1 080 pixels
Display aspect ratio: 16:9
Frame rate mode: Constant
Frame rate: 24.000 FPS
Color space: YUV
Chroma subsampling: 4:2:0
Bit depth: 8 bits
Scan type: Progressive
Bits/(Pixel*Frame): 0.130
Stream size: 1.15 GiB (96%)
Default: Yes
Forced: No
Color range: Limited
Color primaries: BT.709
Transfer characteristics: BT.709
Matrix coefficients: BT.709

Audio
ID: 2
Format: E-AC-3
Format/Info: Enhanced AC-3
Commercial name: Dolby Digital Plus
Codec ID: A_EAC3
Duration: 25 min 32 s
Bit rate mode: Constant
Bit rate: 256 kb/s
Channel(s): 6 channels
Channel layout: L R C LFE Ls Rs
Sampling rate: 48.0 kHz
Frame rate: 31.250 FPS (1536 SPF)
Compression mode: Lossy
Stream size: 46.8 MiB (4%)
Language: English
Service kind: Complete Main
Default: Yes
Forced: No

Text #1
ID: 3
Format: UTF-8
Codec ID: S_TEXT/UTF8
Codec ID/Info: UTF-8 Plain Text
Duration: 23 min 36 s
Bit rate: 41 b/s
Frame rate: 0.179 FPS
Count of elements: 253
Stream size: 7.25 KiB (0%)
Language: English
Default: No
Forced: No

Text #2
ID: 4
Format: UTF-8
Codec ID: S_TEXT/UTF8
Codec ID/Info: UTF-8 Plain Text
Duration: 23 min 55 s
Bit rate: 51 b/s
Frame rate: 0.220 FPS
Count of elements: 316
Stream size: 9.07 KiB (0%)
Title: SDH
Language: English
Default: No
Forced: No

Text #3
ID: 5
Format: UTF-8
Codec ID: S_TEXT/UTF8
Codec ID/Info: UTF-8 Plain Text
Duration: 24 min 58 s
Bit rate: 37 b/s
Frame rate: 0.158 FPS
Count of elements: 237
Stream size: 6.92 KiB (0%)
Language: Czech
Default: No
Forced: No

Text #4
ID: 6
Format: UTF-8
Codec ID: S_TEXT/UTF8
Codec ID/Info: UTF-8 Plain Text
Duration: 24 min 58 s
Bit rate: 39 b/s
Frame rate: 0.165 FPS
Count of elements: 247
Stream size: 7.14 KiB (0%)
Language: Danish
Default: No
Forced: No

Text #5
ID: 7
Format: UTF-8
Codec ID: S_TEXT/UTF8
Codec ID/Info: UTF-8 Plain Text
Duration: 24 min 31 s
Bit rate: 40 b/s
Frame rate: 0.164 FPS
Count of elements: 242
Stream size: 7.31 KiB (0%)
Language: German
Default: No
Forced: No

Text #6
ID: 8
Format: UTF-8
Codec ID: S_TEXT/UTF8
Codec ID/Info: UTF-8 Plain Text
Duration: 24 min 55 s
Bit rate: 70 b/s
Frame rate: 0.167 FPS
Count of elements: 250
Stream size: 12.9 KiB (0%)
Language: Greek
Default: No
Forced: No

Text #7
ID: 9
Format: UTF-8
Codec ID: S_TEXT/UTF8
Codec ID/Info: UTF-8 Plain Text
Duration: 24 min 58 s
Bit rate: 39 b/s
Frame rate: 0.160 FPS
Count of elements: 240
Stream size: 7.18 KiB (0%)
Title: Spanish (Latin America)
Language: Spanish (Latin America)
Default: No
Forced: No

Text #8
ID: 10
Format: UTF-8
Codec ID: S_TEXT/UTF8
Codec ID/Info: UTF-8 Plain Text
Duration: 24 min 58 s
Bit rate: 40 b/s
Frame rate: 0.156 FPS
Count of elements: 234
Stream size: 7.38 KiB (0%)
Title: Spanish (Spain)
Language: Spanish (ES)
Default: No
Forced: No

Text #9
ID: 11
Format: UTF-8
Codec ID: S_TEXT/UTF8
Codec ID/Info: UTF-8 Plain Text
Duration: 24 min 31 s
Bit rate: 37 b/s
Frame rate: 0.166 FPS
Count of elements: 245
Stream size: 6.67 KiB (0%)
Language: Finnish
Default: No
Forced: No

Text #10
ID: 12
Format: UTF-8
Codec ID: S_TEXT/UTF8
Codec ID/Info: UTF-8 Plain Text
Duration: 24 min 31 s
Bit rate: 39 b/s
Frame rate: 0.169 FPS
Count of elements: 249
Stream size: 7.18 KiB (0%)
Language: French (FR)
Default: No
Forced: No

Text #11
ID: 13
Format: UTF-8
Codec ID: S_TEXT/UTF8
Codec ID/Info: UTF-8 Plain Text
Duration: 24 min 58 s
Bit rate: 38 b/s
Frame rate: 0.163 FPS
Count of elements: 244
Stream size: 7.13 KiB (0%)
Language: Hungarian
Default: No
Forced: No

Text #12
ID: 14
Format: UTF-8
Codec ID: S_TEXT/UTF8
Codec ID/Info: UTF-8 Plain Text
Duration: 24 min 31 s
Bit rate: 40 b/s
Frame rate: 0.164 FPS
Count of elements: 241
Stream size: 7.22 KiB (0%)
Language: Italian
Default: No
Forced: No

Text #13
ID: 15
Format: UTF-8
Codec ID: S_TEXT/UTF8
Codec ID/Info: UTF-8 Plain Text
Duration: 25 min 9 s
Bit rate: 35 b/s
Frame rate: 0.161 FPS
Count of elements: 243
Stream size: 6.59 KiB (0%)
Language: Japanese
Default: No
Forced: No

Text #14
ID: 16
Format: UTF-8
Codec ID: S_TEXT/UTF8
Codec ID/Info: UTF-8 Plain Text
Duration: 25 min 9 s
Bit rate: 40 b/s
Frame rate: 0.167 FPS
Count of elements: 252
Stream size: 7.42 KiB (0%)
Language: Korean
Default: No
Forced: No

Text #15
ID: 17
Format: UTF-8
Codec ID: S_TEXT/UTF8
Codec ID/Info: UTF-8 Plain Text
Duration: 24 min 31 s
Bit rate: 38 b/s
Frame rate: 0.137 FPS
Count of elements: 201
Stream size: 6.87 KiB (0%)
Language: Dutch
Default: No
Forced: No

Text #16
ID: 18
Format: UTF-8
Codec ID: S_TEXT/UTF8
Codec ID/Info: UTF-8 Plain Text
Duration: 24 min 58 s
Bit rate: 38 b/s
Frame rate: 0.160 FPS
Count of elements: 240
Stream size: 7.00 KiB (0%)
Language: Norwegian
Default: No
Forced: No

Text #17
ID: 19
Format: UTF-8
Codec ID: S_TEXT/UTF8
Codec ID/Info: UTF-8 Plain Text
Duration: 25 min 9 s
Bit rate: 36 b/s
Frame rate: 0.166 FPS
Count of elements: 250
Stream size: 6.69 KiB (0%)
Language: Polish
Default: No
Forced: No

Text #18
ID: 20
Format: UTF-8
Codec ID: S_TEXT/UTF8
Codec ID/Info: UTF-8 Plain Text
Duration: 24 min 31 s
Bit rate: 39 b/s
Frame rate: 0.163 FPS
Count of elements: 240
Stream size: 7.11 KiB (0%)
Title: Portuguese (Brazil)
Language: Portuguese (BR)
Default: No
Forced: No

Text #19
ID: 21
Format: UTF-8
Codec ID: S_TEXT/UTF8
Codec ID/Info: UTF-8 Plain Text
Duration: 24 min 58 s
Bit rate: 40 b/s
Frame rate: 0.166 FPS
Count of elements: 249
Stream size: 7.45 KiB (0%)
Title: Portuguese (Portugal)
Language: Portuguese (PT)
Default: No
Forced: No

Text #20
ID: 22
Format: UTF-8
Codec ID: S_TEXT/UTF8
Codec ID/Info: UTF-8 Plain Text
Duration: 25 min 9 s
Bit rate: 39 b/s
Frame rate: 0.125 FPS
Count of elements: 188
Stream size: 7.19 KiB (0%)
Language: Romanian
Default: No
Forced: No

Text #21
ID: 23
Format: UTF-8
Codec ID: S_TEXT/UTF8
Codec ID/Info: UTF-8 Plain Text
Duration: 24 min 58 s
Bit rate: 37 b/s
Frame rate: 0.167 FPS
Count of elements: 250
Stream size: 6.92 KiB (0%)
Language: Slovak
Default: No
Forced: No

Text #22
ID: 24
Format: UTF-8
Codec ID: S_TEXT/UTF8
Codec ID/Info: UTF-8 Plain Text
Duration: 24 min 58 s
Bit rate: 40 b/s
Frame rate: 0.167 FPS
Count of elements: 250
Stream size: 7.33 KiB (0%)
Language: Swedish
Default: No
Forced: No

Text #23
ID: 25
Format: UTF-8
Codec ID: S_TEXT/UTF8
Codec ID/Info: UTF-8 Plain Text
Duration: 24 min 58 s
Bit rate: 40 b/s
Frame rate: 0.167 FPS
Count of elements: 250
Stream size: 7.37 KiB (0%)
Language: Turkish
Default: No
Forced: No

Text #24
ID: 26
Format: UTF-8
Codec ID: S_TEXT/UTF8
Codec ID/Info: UTF-8 Plain Text
Duration: 25 min 9 s
Bit rate: 32 b/s
Frame rate: 0.168 FPS
Count of elements: 253
Stream size: 5.90 KiB (0%)
Title: Chinese (Hong Kong SAR China)
Language: Chinese (HK)
Default: No
Forced: No

Text #25
ID: 27
Format: UTF-8
Codec ID: S_TEXT/UTF8
Codec ID/Info: UTF-8 Plain Text
Duration: 25 min 9 s
Bit rate: 32 b/s
Frame rate: 0.168 FPS
Count of elements: 253
Stream size: 6.03 KiB (0%)
Title: Chinese (Simplified)
Language: Chinese (Simplied)
Default: No
Forced: No

Text #26
ID: 28
Format: UTF-8
Codec ID: S_TEXT/UTF8
Codec ID/Info: UTF-8 Plain Text
Duration: 25 min 9 s
Bit rate: 31 b/s
Frame rate: 0.167 FPS
Count of elements: 252
Stream size: 5.89 KiB (0%)
Title: Chinese (Traditional)
Language: Chinese (Traditional)
Default: No
Forced: No

Menu
00:00:00.000: en:Chapter 1
00:00:27.497: en:Intro
00:00:33.872: en:Chapter 2
00:06:01.789: en:Chapter 3
00:20:59.705: en:Chapter 4
00:24:44.497: en:Credits
ssl  EZTV RSS EZTV Status | EZTV API | DMCA: [email protected]