eztv.wf | eztvstatus.org
Search title:  
TV Packs only
 

Big City Greens S03E35 Bunny Farm 1080p HULU WEBRip DDP5 1 x264-NTb EZTV

Episode Breakdown
Big City Greens
Big City Greens TV Show S03E35

Season: 3
Episode: 35
Air Date: 25 March, 2023
Download Links
     Torrent Download     Magnet Download
     Anonymous Download
Added 1 year ago by eztv (verified).
Tracker Statistics
Seeds: 1
Peers: 1
Stats generated @ 07:57 on 23rd Apr 2024
Torrent Info
Torrent File: Big.City.Greens.S03E35.Bunny.Farm.1080p.HULU.WEB-DL.DDP5.1.H.264-NTb[eztv.re].mkv
Torrent Hash: 64BD3AF29FE25AD9A1A48E896FE4CDB4383D991E
Filesize: 357 MB
Released: 18th Mar 2023

File Format: MKV (Matroska)
Resolution: 1920x1080 px
Aspect Ratio: 16:9
Alternate Releases S L
Big City Greens S03E35 Bunny Farm 720p HULU WEBRip DDP5 1 x264-NTb 0 0

Big City Greens S03E35 - Long Goodbye

Summary:

When the Greens return Gramma and Remy to Big City, they are determined to delay their goodbyes for as long as possible.



Big City Greens S03E35 Bunny Farm 1080p HULU WEBRip DDP5 1 x264-NTb EZTV
Big City Greens S3E35 Screenshot
General
Unique ID: 308073620060010077598093046977348552528 (0xE7C4D22CB95BD9BAAE1F35E44400C750)
Complete name: Big.City.Greens.S03E35.Bunny.Farm.1080p.HULU.WEB-DL.DDP5.1.H.264-NTb.mkv
Format: Matroska
Format version: Version 4
File size: 357 MiB
Duration: 11 min 0 s
Overall bit rate: 4 525 kb/s
Encoded date: UTC 2023-03-18 14:41:42
Writing application: mkvmerge v74.0.0 ('You Oughta Know') 64-bit
Writing library: libebml v1.4.4 + libmatroska v1.7.1

Video
ID: 1
Format: AVC
Format/Info: Advanced Video Codec
Format profile: High@L4
Format settings: CABAC / 4 Ref Frames
Format settings, CABAC: Yes
Format settings, Reference frames: 4 frames
Codec ID: V_MPEG4/ISO/AVC
Duration: 11 min 0 s
Bit rate: 4 267 kb/s
Width: 1 920 pixels
Height: 1 080 pixels
Display aspect ratio: 16:9
Frame rate mode: Constant
Frame rate: 23.976 (24000/1001) FPS
Color space: YUV
Chroma subsampling: 4:2:0
Bit depth: 8 bits
Scan type: Progressive
Bits/(Pixel*Frame): 0.086
Stream size: 336 MiB (94%)
Default: Yes
Forced: No

Audio
ID: 2
Format: E-AC-3
Format/Info: Enhanced AC-3
Commercial name: Dolby Digital Plus
Codec ID: A_EAC3
Duration: 11 min 0 s
Bit rate mode: Constant
Bit rate: 256 kb/s
Channel(s): 6 channels
Channel layout: L R C LFE Ls Rs
Sampling rate: 48.0 kHz
Frame rate: 31.250 FPS (1536 SPF)
Compression mode: Lossy
Stream size: 20.2 MiB (6%)
Language: English
Service kind: Complete Main
Default: Yes
Forced: No

Text #1
ID: 3
Format: UTF-8
Codec ID: S_TEXT/UTF8
Codec ID/Info: UTF-8 Plain Text
Duration: 10 min 57 s
Bit rate: 112 b/s
Frame rate: 0.429 FPS
Count of elements: 282
Stream size: 9.04 KiB (0%)
Language: English
Default: No
Forced: No

Text #2
ID: 4
Format: UTF-8
Codec ID: S_TEXT/UTF8
Codec ID/Info: UTF-8 Plain Text
Duration: 10 min 57 s
Bit rate: 120 b/s
Frame rate: 0.465 FPS
Count of elements: 306
Stream size: 9.67 KiB (0%)
Title: SDH
Language: English
Default: No
Forced: No
ssl  EZTV RSS EZTV Status | EZTV API | DMCA: [email protected]