eztv.wf | eztvstatus.org
Search title:  
TV Packs only
 

American Auto S02E09 Night Out 1080p AMZN WEBRip DDP5 1 x264-NTb EZTV

Episode Breakdown
American Auto
American Auto TV Show S02E09

Season: 2
Episode: 9
Air Date: 21 March, 2023
Download Links
     Torrent Download     Magnet Download
     Anonymous Download
Added 1 year ago by eztv (verified).
Tracker Statistics
Seeds: 0
Peers: 1
Stats generated @ 23:07 on 15th Jun 2024
Torrent Info
Torrent File: American.Auto.S02E09.Night.Out.1080p.AMZN.WEB-DL.DDP5.1.H.264-NTb[eztv.re].mkv
Torrent Hash: FF827D4C30855F5D1DAAA93DE620A8883A508469
Filesize: 1.57 GB
Released: 24th Mar 2023

File Format: MKV (Matroska)
Resolution: 1920x1080 px
Aspect Ratio: 16:9
Alternate Releases S L
American Auto S02E09 720p HDTV x264-SYNCOPY 0 0
American Auto S02E09 XviD-AFG 0 0
American Auto S02E09 720p HEVC x265-MeGusta 0 0
American Auto S02E09 480p x264-mSD 0 0
American Auto S02E09 1080p WEB h264-TRUFFLE 0 0
American Auto S02E09 1080p HEVC x265-MeGusta 1 0
American Auto S02E09 720p WEB h264-KOGi 0 0

American Auto S02E09 - Night Out

Summary:

The gang ends up at Katherine's house for what seems like an innocent night of drinking and employee bonding, but things escalate when everyone learns that Katherine and Richard are in the middle of a divorce.



American Auto S02E09 Night Out 1080p AMZN WEBRip DDP5 1 x264-NTb EZTV
American Auto S2E9 Screenshot
General
Unique ID: 333580996269329267253230277602593867771 (0xFAF55CEAE7A105DA6CD8D46ABE0A07FB)
Complete name: American.Auto.S02E09.Night.Out.1080p.AMZN.WEB-DL.DDP5.1.H.264-NTb.mkv
Format: Matroska
Format version: Version 4
File size: 1.57 GiB
Duration: 21 min 31 s
Overall bit rate: 10.4 Mb/s
Writing application: mkvmerge v74.0.0 ('You Oughta Know') 64-bit
Writing library: libebml v1.4.4 + libmatroska v1.7.1

Video
ID: 1
Format: AVC
Format/Info: Advanced Video Codec
Format profile: High@L4
Format settings: CABAC / 4 Ref Frames
Format settings, CABAC: Yes
Format settings, Reference frames: 4 frames
Codec ID: V_MPEG4/ISO/AVC
Duration: 21 min 31 s
Bit rate mode: Constant
Bit rate: 10 000 kb/s
Width: 1 920 pixels
Height: 1 080 pixels
Display aspect ratio: 16:9
Frame rate mode: Constant
Frame rate: 23.976 (24000/1001) FPS
Color space: YUV
Chroma subsampling: 4:2:0
Bit depth: 8 bits
Scan type: Progressive
Bits/(Pixel*Frame): 0.201
Stream size: 1.47 GiB (94%)
Default: Yes
Forced: No
Color range: Limited
Color primaries: BT.709
Transfer characteristics: BT.709
Matrix coefficients: BT.709

Audio
ID: 2
Format: E-AC-3
Format/Info: Enhanced AC-3
Commercial name: Dolby Digital Plus
Codec ID: A_EAC3
Duration: 21 min 31 s
Bit rate mode: Constant
Bit rate: 640 kb/s
Channel(s): 6 channels
Channel layout: L R C LFE Ls Rs
Sampling rate: 48.0 kHz
Frame rate: 31.250 FPS (1536 SPF)
Compression mode: Lossy
Stream size: 98.6 MiB (6%)
Language: English (US)
Service kind: Complete Main
Default: Yes
Forced: No

Text #1
ID: 3
Format: UTF-8
Codec ID: S_TEXT/UTF8
Codec ID/Info: UTF-8 Plain Text
Duration: 21 min 17 s
Bit rate: 129 b/s
Frame rate: 0.495 FPS
Count of elements: 632
Stream size: 20.3 KiB (0%)
Language: English (US)
Default: No
Forced: No

Text #2
ID: 4
Format: UTF-8
Codec ID: S_TEXT/UTF8
Codec ID/Info: UTF-8 Plain Text
Duration: 21 min 18 s
Bit rate: 134 b/s
Frame rate: 0.511 FPS
Count of elements: 654
Stream size: 21.0 KiB (0%)
Title: SDH
Language: English (US)
Default: No
Forced: No
ssl  EZTV RSS EZTV Status | EZTV API | DMCA: [email protected]