eztv.wf | Monday 29th of May 2023 07:48 AM ET
Search title:  
 

BMF S02E08 Push It to the Limit 720p AMZN WEBRip DDP5 1 x264-NTb EZTV

Episode Breakdown
Black Mafia Family
Black Mafia Family TV Show S02E08

Season: 2
Episode: 8
Air Date: 3 March, 2023
Download Links
     Torrent Download     Magnet Download
     Anonymous Download
Added 2 months ago by eztv (verified).
Tracker Statistics
Seeds: 0
Peers: 0
Stats generated @ 07:48 on 29th May 2023
Torrent Info
Torrent File: BMF.S02E08.Push.It.to.the.Limit.720p.AMZN.WEB-DL.DDP5.1.H.264-NTb[eztv.re].mkv
Torrent Hash: 81FCD7C54C9E7E310B54991C4FE8C7CEB4F857FB
Filesize: 2.27 GB
Released: 3rd Mar 2023

File Format: MKV (Matroska)
Resolution: 1280x720 px
Aspect Ratio: 16:9
Alternate Releases S L
BMF S02E08 XviD-AFG 2 0
BMF S02E08 1080p HEVC x265-MeGusta 5 2
BMF S02E08 Push It to the Limit 1080p AMZN WEBRip DDP5 1 x264-NTb 0 1
BMF S02E08 1080p WEB H264-CAKES 4 1

Black Mafia Family S02E08 - Push It to the Limit

Summary:

The Flenory brothers buy a car wash to pack cars after being flushed with product from a new plug; Meech turns dealers into kingmakers, and Terry hires new drivers.



BMF S02E08 Push It to the Limit 720p AMZN WEBRip DDP5 1 x264-NTb EZTV
Black Mafia Family S2E8 Screenshot
General
Unique ID: 156656964048132229726771057195973579349 (0x75DB08A77DAFA6DDD2F9BF579A3B9255)
Complete name: BMF.S02E08.Push.It.to.the.Limit.720p.AMZN.WEB-DL.DDP5.1.H.264-NTb.mkv
Format: Matroska
Format version: Version 4
File size: 2.27 GiB
Duration: 50 min 38 s
Overall bit rate: 6 430 kb/s
Writing application: mkvmerge v74.0.0 ('You Oughta Know') 64-bit
Writing library: libebml v1.4.4 + libmatroska v1.7.1

Video
ID: 1
Format: AVC
Format/Info: Advanced Video Codec
Format profile: [email protected]
Format settings: CABAC / 4 Ref Frames
Format settings, CABAC: Yes
Format settings, Reference frames: 4 frames
Codec ID: V_MPEG4/ISO/AVC
Duration: 50 min 38 s
Bit rate mode: Constant
Bit rate: 6 000 kb/s
Width: 1 280 pixels
Height: 720 pixels
Display aspect ratio: 16:9
Frame rate mode: Constant
Frame rate: 23.976 (24000/1001) FPS
Color space: YUV
Chroma subsampling: 4:2:0
Bit depth: 8 bits
Scan type: Progressive
Bits/(Pixel*Frame): 0.272
Stream size: 2.05 GiB (90%)
Default: Yes
Forced: No
Color range: Limited
Color primaries: BT.709
Transfer characteristics: BT.709
Matrix coefficients: BT.709

Audio
ID: 2
Format: E-AC-3
Format/Info: Enhanced AC-3
Commercial name: Dolby Digital Plus
Codec ID: A_EAC3
Duration: 50 min 38 s
Bit rate mode: Constant
Bit rate: 640 kb/s
Channel(s): 6 channels
Channel layout: L R C LFE Ls Rs
Sampling rate: 48.0 kHz
Frame rate: 31.250 FPS (1536 SPF)
Compression mode: Lossy
Stream size: 232 MiB (10%)
Language: English (US)
Service kind: Complete Main
Default: Yes
Forced: No

Text #1
ID: 3
Format: UTF-8
Codec ID: S_TEXT/UTF8
Codec ID/Info: UTF-8 Plain Text
Duration: 50 min 20 s
Bit rate: 87 b/s
Frame rate: 0.324 FPS
Count of elements: 979
Stream size: 32.4 KiB (0%)
Language: English (US)
Default: No
Forced: No

Text #2
ID: 4
Format: UTF-8
Codec ID: S_TEXT/UTF8
Codec ID/Info: UTF-8 Plain Text
Duration: 50 min 20 s
Bit rate: 97 b/s
Frame rate: 0.365 FPS
Count of elements: 1101
Stream size: 35.9 KiB (0%)
Title: SDH
Language: English (US)
Default: No
Forced: No
ssl  EZTV RSS EZTV Status | EZTV API | DMCA: [email protected]