eztv.wf | eztvstatus.org
Search title:  
TV Packs only
 

American Auto S02E10 Passion Project 1080p AMZN WEBRip DDP5 1 x264-NTb EZTV

Episode Breakdown
American Auto
American Auto TV Show S02E10

Season: 2
Episode: 10
Air Date: 28 March, 2023
Download Links
     Torrent Download     Magnet Download
     Anonymous Download
Added 1 year ago by eztv (verified).
Tracker Statistics
Seeds: 0
Peers: 0
Stats generated @ 05:16 on 26th May 2024
Torrent Info
Torrent File: American.Auto.S02E10.Passion.Project.1080p.AMZN.WEB-DL.DDP5.1.H.264-NTb[eztv.re].mkv
Torrent Hash: 974300B0F7F37C41B6000EF06CD65CC11F68BDE4
Filesize: 1.56 GB
Released: 29th Mar 2023

File Format: MKV (Matroska)
Resolution: 1920x1080 px
Aspect Ratio: 16:9
Alternate Releases S L
American Auto S02E10 720p HDTV x264-SYNCOPY 1 0
American Auto S02E10 XviD-AFG 0 0
American Auto S02E10 720p HEVC x265-MeGusta 0 0
American Auto S02E10 720p WEB h264-ELEANOR 0 0
American Auto S02E10 1080p WEB h264-ELEANOR 0 0
American Auto S02E10 1080p HEVC x265-MeGusta 0 2
American Auto S02E10 480p x264-mSD 0 0

American Auto S02E10 - Passion Project

Summary:

Coming off the news of her divorce, Katherine wants to institute big changes in the office, which prompts Cyrus to introduce her to his dream car. However, things go south when Katherine attempts to transform his design into a vision of her own. -



American Auto S02E10 Passion Project 1080p AMZN WEBRip DDP5 1 x264-NTb EZTV
American Auto S2E10 Screenshot
General
Unique ID: 99185131820077858259740633960215230510 (0x4A9E5C8DF3ECCCAD076DF67176A4382E)
Complete name: American.Auto.S02E10.Passion.Project.1080p.AMZN.WEB-DL.DDP5.1.H.264-NTb.mkv
Format: Matroska
Format version: Version 4
File size: 1.56 GiB
Duration: 21 min 33 s
Overall bit rate: 10.4 Mb/s
Writing application: mkvmerge v74.0.0 ('You Oughta Know') 64-bit
Writing library: libebml v1.4.4 + libmatroska v1.7.1

Video
ID: 1
Format: AVC
Format/Info: Advanced Video Codec
Format profile: High@L4
Format settings: CABAC / 4 Ref Frames
Format settings, CABAC: Yes
Format settings, Reference frames: 4 frames
Codec ID: V_MPEG4/ISO/AVC
Duration: 21 min 33 s
Bit rate mode: Constant
Bit rate: 10 000 kb/s
Width: 1 920 pixels
Height: 1 080 pixels
Display aspect ratio: 16:9
Frame rate mode: Constant
Frame rate: 23.976 (24000/1001) FPS
Color space: YUV
Chroma subsampling: 4:2:0
Bit depth: 8 bits
Scan type: Progressive
Bits/(Pixel*Frame): 0.201
Stream size: 1.46 GiB (94%)
Default: Yes
Forced: No
Color range: Limited
Color primaries: BT.709
Transfer characteristics: BT.709
Matrix coefficients: BT.709

Audio
ID: 2
Format: E-AC-3
Format/Info: Enhanced AC-3
Commercial name: Dolby Digital Plus
Codec ID: A_EAC3
Duration: 21 min 33 s
Bit rate mode: Constant
Bit rate: 640 kb/s
Channel(s): 6 channels
Channel layout: L R C LFE Ls Rs
Sampling rate: 48.0 kHz
Frame rate: 31.250 FPS (1536 SPF)
Compression mode: Lossy
Stream size: 98.7 MiB (6%)
Language: English (US)
Service kind: Complete Main
Default: Yes
Forced: No

Text #1
ID: 3
Format: UTF-8
Codec ID: S_TEXT/UTF8
Codec ID/Info: UTF-8 Plain Text
Duration: 21 min 18 s
Bit rate: 138 b/s
Frame rate: 0.505 FPS
Count of elements: 646
Stream size: 21.6 KiB (0%)
Language: English (US)
Default: No
Forced: No

Text #2
ID: 4
Format: UTF-8
Codec ID: S_TEXT/UTF8
Codec ID/Info: UTF-8 Plain Text
Duration: 21 min 18 s
Bit rate: 141 b/s
Frame rate: 0.512 FPS
Count of elements: 655
Stream size: 22.0 KiB (0%)
Title: SDH
Language: English (US)
Default: No
Forced: No
ssl  EZTV RSS EZTV Status | EZTV API | DMCA: [email protected]