eztv.wf | eztvstatus.org
Search title:  
TV Packs only
 

Silo S01E01 Freedom Day 720p ATVP WEBRip DDP5 1 x264-NTb EZTV

Episode Breakdown
Silo
Silo TV Show S01E01

Season: 1
Episode: 1
Air Date: 5 May, 2023
Download Links
     Torrent Download     Magnet Download
     Anonymous Download
Added 9 months ago by eztv (verified).
Tracker Statistics
Seeds: 23
Peers: 2
Stats generated @ 14:48 on 22nd Feb 2024
Torrent Info
Torrent File: Silo.S01E01.Freedom.Day.720p.ATVP.WEB-DL.DDP5.1.H.264-NTb[eztv.re].mkv
Torrent Hash: F2BEFBA1B8ECA03E68044AD45CA6956178A682D9
Filesize: 1.50 GB
Released: 4th May 2023

File Format: MKV (Matroska)
Resolution: 1280x720 px
Aspect Ratio: 16:9
Alternate Releases S L
Silo S01E01 1080p WEB H264-GGWP 23 2
Silo S01E01 XviD-AFG 17 2
Silo S01E01 Freedom Day 1080p ATVP WEBRip DDP5 1 x264-NTb 59 2
Silo S01E01 1080p HEVC x265-MeGusta 154 5
Silo S01E01 480p x264-mSD 7 2
Silo S01E01 720p HEVC x265-MeGusta 13 3
Silo S01E01 Freedom Day 1080p ATVP WEB-DL DDP5 1 H 264-NTb 63 5

Silo S01E01 - Freedom Day

Summary:

Sheriff Becker's plans for the future are thrown off course after his wife meets a hacker with information about the silo.



Silo S01E01 Freedom Day 720p ATVP WEBRip DDP5 1 x264-NTb EZTV
Silo S1E1 Screenshot


General
Unique ID: 23845969885471296789792525659896100071 (0x11F091163C5132CEC9A7543F50B134E7)
Complete name: Silo.S01E01.Freedom.Day.720p.ATVP.WEB-DL.DDP5.1.H.264-NTb.mkv
Format: Matroska
Format version: Version 4
File size: 1.50 GiB
Duration: 59 min 23 s
Overall bit rate: 3 613 kb/s
Writing application: mkvmerge v75.0.0 ('Goliath') 64-bit
Writing library: libebml v1.4.4 + libmatroska v1.7.1

Video
ID: 1
Format: AVC
Format/Info: Advanced Video Codec
Format profile: [email protected]
Format settings: CABAC / 5 Ref Frames
Format settings, CABAC: Yes
Format settings, Reference frames: 5 frames
Codec ID: V_MPEG4/ISO/AVC
Duration: 59 min 23 s
Bit rate: 2 838 kb/s
Width: 1 356 pixels
Height: 678 pixels
Display aspect ratio: 2.000
Frame rate mode: Constant
Frame rate: 23.976 (24000/1001) FPS
Color space: YUV
Chroma subsampling: 4:2:0
Bit depth: 8 bits
Scan type: Progressive
Bits/(Pixel*Frame): 0.129
Stream size: 1.18 GiB (79%)
Default: Yes
Forced: No
Color range: Limited
Color primaries: BT.709
Transfer characteristics: BT.709
Matrix coefficients: BT.709

Audio
ID: 2
Format: E-AC-3 JOC
Format/Info: Enhanced AC-3 with Joint Object Coding
Commercial name: Dolby Digital Plus with Dolby Atmos
Codec ID: A_EAC3
Duration: 59 min 23 s
Bit rate mode: Constant
Bit rate: 768 kb/s
Channel(s): 6 channels
Channel layout: L R C LFE Ls Rs
Sampling rate: 48.0 kHz
Frame rate: 31.250 FPS (1536 SPF)
Compression mode: Lossy
Stream size: 326 MiB (21%)
Language: English
Service kind: Complete Main
Default: Yes
Forced: No
Complexity index: 16
Number of dynamic objects: 15
Bed channel count: 1 channel
Bed channel configuration: LFE

Text #1
ID: 3
Format: UTF-8
Codec ID: S_TEXT/UTF8
Codec ID/Info: UTF-8 Plain Text
Duration: 57 min 22 s
Bit rate: 48 b/s
Frame rate: 0.176 FPS
Count of elements: 605
Stream size: 20.6 KiB (0%)
Language: English
Default: No
Forced: No

Text #2
ID: 4
Format: UTF-8
Codec ID: S_TEXT/UTF8
Codec ID/Info: UTF-8 Plain Text
Duration: 57 min 22 s
Bit rate: 57 b/s
Frame rate: 0.201 FPS
Count of elements: 692
Stream size: 24.2 KiB (0%)
Title: SDH
Language: English
Default: No
Forced: No

Text #3
ID: 5
Format: UTF-8
Codec ID: S_TEXT/UTF8
Codec ID/Info: UTF-8 Plain Text
Duration: 59 min 9 s
Bit rate: 69 b/s
Frame rate: 0.179 FPS
Count of elements: 636
Stream size: 30.3 KiB (0%)
Language: Arabic
Default: No
Forced: No

Text #4
ID: 6
Format: UTF-8
Codec ID: S_TEXT/UTF8
Codec ID/Info: UTF-8 Plain Text
Duration: 59 min 9 s
Bit rate: 72 b/s
Frame rate: 0.159 FPS
Count of elements: 565
Stream size: 31.5 KiB (0%)
Language: Bulgarian
Default: No
Forced: No

Text #5
ID: 7
Format: UTF-8
Codec ID: S_TEXT/UTF8
Codec ID/Info: UTF-8 Plain Text
Duration: 59 min 9 s
Bit rate: 43 b/s
Frame rate: 0.179 FPS
Count of elements: 636
Stream size: 19.1 KiB (0%)
Title: Chinese (Simplified)
Language: Mandarin (Hans)
Default: No
Forced: No

Text #6
ID: 8
Format: UTF-8
Codec ID: S_TEXT/UTF8
Codec ID/Info: UTF-8 Plain Text
Duration: 59 min 9 s
Bit rate: 45 b/s
Frame rate: 0.179 FPS
Count of elements: 637
Stream size: 19.6 KiB (0%)
Title: Chinese (Traditional)
Language: Mandarin (Hant)
Default: No
Forced: No

Text #7
ID: 9
Format: UTF-8
Codec ID: S_TEXT/UTF8
Codec ID/Info: UTF-8 Plain Text
Duration: 59 min 9 s
Bit rate: 44 b/s
Frame rate: 0.168 FPS
Count of elements: 598
Stream size: 19.3 KiB (0%)
Language: Czech
Default: No
Forced: No

Text #8
ID: 10
Format: UTF-8
Codec ID: S_TEXT/UTF8
Codec ID/Info: UTF-8 Plain Text
Duration: 58 min 22 s
Bit rate: 50 b/s
Frame rate: 0.162 FPS
Count of elements: 567
Stream size: 21.8 KiB (0%)
Language: Danish
Default: No
Forced: No

Text #9
ID: 11
Format: UTF-8
Codec ID: S_TEXT/UTF8
Codec ID/Info: UTF-8 Plain Text
Duration: 58 min 27 s
Bit rate: 46 b/s
Frame rate: 0.180 FPS
Count of elements: 633
Stream size: 19.8 KiB (0%)
Language: German
Default: No
Forced: No

Text #10
ID: 12
Format: UTF-8
Codec ID: S_TEXT/UTF8
Codec ID/Info: UTF-8 Plain Text
Duration: 59 min 9 s
Bit rate: 82 b/s
Frame rate: 0.173 FPS
Count of elements: 614
Stream size: 35.6 KiB (0%)
Language: Greek
Default: No
Forced: No

Text #11
ID: 13
Format: UTF-8
Codec ID: S_TEXT/UTF8
Codec ID/Info: UTF-8 Plain Text
Duration: 59 min 9 s
Bit rate: 50 b/s
Frame rate: 0.180 FPS
Count of elements: 639
Stream size: 21.7 KiB (0%)
Title: Spanish (Latin America)
Language: Spanish (Latin America)
Default: No
Forced: No

Text #12
ID: 14
Format: UTF-8
Codec ID: S_TEXT/UTF8
Codec ID/Info: UTF-8 Plain Text
Duration: 59 min 9 s
Bit rate: 50 b/s
Frame rate: 0.180 FPS
Count of elements: 640
Stream size: 22.0 KiB (0%)
Title: Spanish (Spain)
Language: Spanish (ES)
Default: No
Forced: No

Text #13
ID: 15
Format: UTF-8
Codec ID: S_TEXT/UTF8
Codec ID/Info: UTF-8 Plain Text
Duration: 59 min 9 s
Bit rate: 46 b/s
Frame rate: 0.172 FPS
Count of elements: 612
Stream size: 19.9 KiB (0%)
Language: Estonian
Default: No
Forced: No

Text #14
ID: 16
Format: UTF-8
Codec ID: S_TEXT/UTF8
Codec ID/Info: UTF-8 Plain Text
Duration: 59 min 9 s
Bit rate: 44 b/s
Frame rate: 0.166 FPS
Count of elements: 589
Stream size: 19.1 KiB (0%)
Language: Finnish
Default: No
Forced: No

Text #15
ID: 17
Format: UTF-8
Codec ID: S_TEXT/UTF8
Codec ID/Info: UTF-8 Plain Text
Duration: 58 min 26 s
Bit rate: 48 b/s
Frame rate: 0.189 FPS
Count of elements: 661
Stream size: 20.7 KiB (0%)
Title: French (Canada)
Language: French (CA)
Default: No
Forced: No

Text #16
ID: 18
Format: UTF-8
Codec ID: S_TEXT/UTF8
Codec ID/Info: UTF-8 Plain Text
Duration: 58 min 26 s
Bit rate: 48 b/s
Frame rate: 0.189 FPS
Count of elements: 661
Stream size: 20.7 KiB (0%)
Title: French (France)
Language: French (FR)
Default: No
Forced: No

Text #17
ID: 19
Format: UTF-8
Codec ID: S_TEXT/UTF8
Codec ID/Info: UTF-8 Plain Text
Duration: 59 min 9 s
Bit rate: 70 b/s
Frame rate: 0.179 FPS
Count of elements: 636
Stream size: 30.7 KiB (0%)
Language: Hebrew
Default: No
Forced: No

Text #18
ID: 20
Format: UTF-8
Codec ID: S_TEXT/UTF8
Codec ID/Info: UTF-8 Plain Text
Duration: 59 min 9 s
Bit rate: 131 b/s
Frame rate: 0.179 FPS
Count of elements: 637
Stream size: 57.1 KiB (0%)
Language: Hindi
Default: No
Forced: No

Text #19
ID: 21
Format: UTF-8
Codec ID: S_TEXT/UTF8
Codec ID/Info: UTF-8 Plain Text
Duration: 59 min 9 s
Bit rate: 47 b/s
Frame rate: 0.177 FPS
Count of elements: 630
Stream size: 20.4 KiB (0%)
Language: Hungarian
Default: No
Forced: No

Text #20
ID: 22
Format: UTF-8
Codec ID: S_TEXT/UTF8
Codec ID/Info: UTF-8 Plain Text
Duration: 59 min 9 s
Bit rate: 48 b/s
Frame rate: 0.179 FPS
Count of elements: 635
Stream size: 21.2 KiB (0%)
Language: Indonesian
Default: No
Forced: No

Text #21
ID: 23
Format: UTF-8
Codec ID: S_TEXT/UTF8
Codec ID/Info: UTF-8 Plain Text
Duration: 58 min 33 s
Bit rate: 51 b/s
Frame rate: 0.177 FPS
Count of elements: 623
Stream size: 22.0 KiB (0%)
Language: Italian
Default: No
Forced: No

Text #22
ID: 24
Format: UTF-8
Codec ID: S_TEXT/UTF8
Codec ID/Info: UTF-8 Plain Text
Duration: 59 min 9 s
Bit rate: 41 b/s
Frame rate: 0.177 FPS
Count of elements: 629
Stream size: 17.8 KiB (0%)
Language: Japanese
Default: No
Forced: No

Text #23
ID: 25
Format: UTF-8
Codec ID: S_TEXT/UTF8
Codec ID/Info: UTF-8 Plain Text
Duration: 59 min 9 s
Bit rate: 57 b/s
Frame rate: 0.179 FPS
Count of elements: 636
Stream size: 24.9 KiB (0%)
Language: Korean
Default: No
Forced: No

Text #24
ID: 26
Format: UTF-8
Codec ID: S_TEXT/UTF8
Codec ID/Info: UTF-8 Plain Text
Duration: 59 min 9 s
Bit rate: 49 b/s
Frame rate: 0.179 FPS
Count of elements: 636
Stream size: 21.6 KiB (0%)
Language: Lithuanian
Default: No
Forced: No

Text #25
ID: 27
Format: UTF-8
Codec ID: S_TEXT/UTF8
Codec ID/Info: UTF-8 Plain Text
Duration: 59 min 9 s
Bit rate: 51 b/s
Frame rate: 0.176 FPS
Count of elements: 624
Stream size: 22.2 KiB (0%)
Language: Latvian
Default: No
Forced: No

Text #26
ID: 28
Format: UTF-8
Codec ID: S_TEXT/UTF8
Codec ID/Info: UTF-8 Plain Text
Duration: 59 min 9 s
Bit rate: 48 b/s
Frame rate: 0.179 FPS
Count of elements: 636
Stream size: 20.8 KiB (0%)
Language: Malay
Default: No
Forced: No

Text #27
ID: 29
Format: UTF-8
Codec ID: S_TEXT/UTF8
Codec ID/Info: UTF-8 Plain Text
Duration: 58 min 22 s
Bit rate: 46 b/s
Frame rate: 0.152 FPS
Count of elements: 534
Stream size: 19.9 KiB (0%)
Language: Dutch
Default: No
Forced: No

Text #28
ID: 30
Format: UTF-8
Codec ID: S_TEXT/UTF8
Codec ID/Info: UTF-8 Plain Text
Duration: 58 min 22 s
Bit rate: 43 b/s
Frame rate: 0.142 FPS
Count of elements: 499
Stream size: 18.7 KiB (0%)
Language: Norwegian
Default: No
Forced: No

Text #29
ID: 31
Format: UTF-8
Codec ID: S_TEXT/UTF8
Codec ID/Info: UTF-8 Plain Text
Duration: 59 min 9 s
Bit rate: 45 b/s
Frame rate: 0.166 FPS
Count of elements: 591
Stream size: 19.7 KiB (0%)
Language: Polish
Default: No
Forced: No

Text #30
ID: 32
Format: UTF-8
Codec ID: S_TEXT/UTF8
Codec ID/Info: UTF-8 Plain Text
Duration: 59 min 9 s
Bit rate: 49 b/s
Frame rate: 0.177 FPS
Count of elements: 629
Stream size: 21.5 KiB (0%)
Title: Portuguese
Language: Portuguese
Default: No
Forced: No

Text #31
ID: 33
Format: UTF-8
Codec ID: S_TEXT/UTF8
Codec ID/Info: UTF-8 Plain Text
Duration: 59 min 9 s
Bit rate: 46 b/s
Frame rate: 0.175 FPS
Count of elements: 622
Stream size: 20.0 KiB (0%)
Title: Portuguese (Brazil)
Language: Portuguese (BR)
Default: No
Forced: No

Text #32
ID: 34
Format: UTF-8
Codec ID: S_TEXT/UTF8
Codec ID/Info: UTF-8 Plain Text
Duration: 59 min 14 s
Bit rate: 72 b/s
Frame rate: 0.178 FPS
Count of elements: 632
Stream size: 31.5 KiB (0%)
Language: Russian
Default: No
Forced: No

Text #33
ID: 35
Format: UTF-8
Codec ID: S_TEXT/UTF8
Codec ID/Info: UTF-8 Plain Text
Duration: 59 min 9 s
Bit rate: 45 b/s
Frame rate: 0.178 FPS
Count of elements: 633
Stream size: 19.9 KiB (0%)
Language: Slovak
Default: No
Forced: No

Text #34
ID: 36
Format: UTF-8
Codec ID: S_TEXT/UTF8
Codec ID/Info: UTF-8 Plain Text
Duration: 59 min 9 s
Bit rate: 42 b/s
Frame rate: 0.168 FPS
Count of elements: 598
Stream size: 18.5 KiB (0%)
Language: Slovenian
Default: No
Forced: No

Text #35
ID: 37
Format: UTF-8
Codec ID: S_TEXT/UTF8
Codec ID/Info: UTF-8 Plain Text
Duration: 59 min 9 s
Bit rate: 48 b/s
Frame rate: 0.179 FPS
Count of elements: 634
Stream size: 21.0 KiB (0%)
Language: Swedish
Default: No
Forced: No

Text #36
ID: 38
Format: UTF-8
Codec ID: S_TEXT/UTF8
Codec ID/Info: UTF-8 Plain Text
Duration: 59 min 9 s
Bit rate: 165 b/s
Frame rate: 0.179 FPS
Count of elements: 636
Stream size: 71.5 KiB (0%)
Language: Tamil
Default: No
Forced: No

Text #37
ID: 39
Format: UTF-8
Codec ID: S_TEXT/UTF8
Codec ID/Info: UTF-8 Plain Text
Duration: 59 min 9 s
Bit rate: 143 b/s
Frame rate: 0.179 FPS
Count of elements: 636
Stream size: 62.3 KiB (0%)
Language: Telugu
Default: No
Forced: No

Text #38
ID: 40
Format: UTF-8
Codec ID: S_TEXT/UTF8
Codec ID/Info: UTF-8 Plain Text
Duration: 59 min 9 s
Bit rate: 123 b/s
Frame rate: 0.179 FPS
Count of elements: 636
Stream size: 53.7 KiB (0%)
Language: Thai
Default: No
Forced: No

Text #39
ID: 41
Format: UTF-8
Codec ID: S_TEXT/UTF8
Codec ID/Info: UTF-8 Plain Text
Duration: 59 min 9 s
Bit rate: 50 b/s
Frame rate: 0.177 FPS
Count of elements: 628
Stream size: 21.7 KiB (0%)
Language: Turkish
Default: No
Forced: No

Text #40
ID: 42
Format: UTF-8
Codec ID: S_TEXT/UTF8
Codec ID/Info: UTF-8 Plain Text
Duration: 59 min 9 s
Bit rate: 73 b/s
Frame rate: 0.179 FPS
Count of elements: 636
Stream size: 31.9 KiB (0%)
Language: Ukrainian
Default: No
Forced: No

Text #41
ID: 43
Format: UTF-8
Codec ID: S_TEXT/UTF8
Codec ID/Info: UTF-8 Plain Text
Duration: 59 min 9 s
Bit rate: 62 b/s
Frame rate: 0.179 FPS
Count of elements: 636
Stream size: 27.1 KiB (0%)
Language: Vietnamese
Default: No
Forced: No

Text #42
ID: 44
Format: UTF-8
Codec ID: S_TEXT/UTF8
Codec ID/Info: UTF-8 Plain Text
Duration: 59 min 9 s
Bit rate: 43 b/s
Frame rate: 0.179 FPS
Count of elements: 637
Stream size: 18.7 KiB (0%)
Title: Cantonese (Traditional)
Language: Cantonese (Hant)
Default: No
Forced: No
ssl  EZTV RSS EZTV Status | EZTV API | DMCA: [email protected]