eztv.wf | eztvstatus.org
Search title:  
TV Packs only
 

Silo S01E02 Holstons Pick 720p ATVP WEBRip DDP5 1 x264-NTb EZTV

Episode Breakdown
Silo
Silo TV Show S01E02

Season: 1
Episode: 2
Air Date: 5 May, 2023
Download Links
     Torrent Download     Magnet Download
     Anonymous Download
Added 9 months ago by eztv (verified).
Tracker Statistics
Seeds: 21
Peers: 5
Stats generated @ 14:26 on 22nd Feb 2024
Torrent Info
Torrent File: Silo.S01E02.Holstons.Pick.720p.ATVP.WEB-DL.DDP5.1.H.264-NTb[eztv.re].mkv
Torrent Hash: 2755C4F9D343B276A13FC02167E78EB4A3D84327
Filesize: 1.56 GB
Released: 4th May 2023

File Format: MKV (Matroska)
Resolution: 1280x720 px
Aspect Ratio: 16:9
Alternate Releases S L
Silo S01E02 1080p WEB H264-GLHF 17 2
Silo S01E02 XviD-AFG 12 2
Silo S01E02 Holstons Pick 1080p ATVP WEBRip DDP5 1 x264-NTb 60 4
Silo S01E02 1080p HEVC x265-MeGusta 133 2
Silo S01E02 480p x264-mSD 1 8
Silo S01E02 720p HEVC x265-MeGusta 9 4
Silo S01E02 Holstons Pick 1080p ATVP WEB-DL DDP5 1 H 264-NTb 65 4

Silo S01E02 - Holston's Pick

Summary:

Juliette, an engineer, pieces together what might have led to a co-worker's mysterious death.



Silo S01E02 Holstons Pick 720p ATVP WEBRip DDP5 1 x264-NTb EZTV
Silo S1E2 Screenshot


General
Unique ID: 253409638835273173160409928090442602581 (0xBEA4EBD1554AC61F6E175E141FE91855)
Complete name: Silo.S01E02.Holstons.Pick.720p.ATVP.WEB-DL.DDP5.1.H.264-NTb.mkv
Format: Matroska
Format version: Version 4
File size: 1.56 GiB
Duration: 47 min 46 s
Overall bit rate: 4 686 kb/s
Writing application: mkvmerge v75.0.0 ('Goliath') 64-bit
Writing library: libebml v1.4.4 + libmatroska v1.7.1

Video
ID: 1
Format: AVC
Format/Info: Advanced Video Codec
Format profile: [email protected]
Format settings: CABAC / 5 Ref Frames
Format settings, CABAC: Yes
Format settings, Reference frames: 5 frames
Codec ID: V_MPEG4/ISO/AVC
Duration: 47 min 46 s
Bit rate: 3 912 kb/s
Width: 1 356 pixels
Height: 678 pixels
Display aspect ratio: 2.000
Frame rate mode: Constant
Frame rate: 23.976 (24000/1001) FPS
Color space: YUV
Chroma subsampling: 4:2:0
Bit depth: 8 bits
Scan type: Progressive
Bits/(Pixel*Frame): 0.177
Stream size: 1.31 GiB (83%)
Default: Yes
Forced: No
Color range: Limited
Color primaries: BT.709
Transfer characteristics: BT.709
Matrix coefficients: BT.709

Audio
ID: 2
Format: E-AC-3 JOC
Format/Info: Enhanced AC-3 with Joint Object Coding
Commercial name: Dolby Digital Plus with Dolby Atmos
Codec ID: A_EAC3
Duration: 47 min 46 s
Bit rate mode: Constant
Bit rate: 768 kb/s
Channel(s): 6 channels
Channel layout: L R C LFE Ls Rs
Sampling rate: 48.0 kHz
Frame rate: 31.250 FPS (1536 SPF)
Compression mode: Lossy
Stream size: 262 MiB (16%)
Language: English
Service kind: Complete Main
Default: Yes
Forced: No
Complexity index: 16
Number of dynamic objects: 15
Bed channel count: 1 channel
Bed channel configuration: LFE

Text #1
ID: 3
Format: UTF-8
Codec ID: S_TEXT/UTF8
Codec ID/Info: UTF-8 Plain Text
Duration: 46 min 10 s
Bit rate: 49 b/s
Frame rate: 0.183 FPS
Count of elements: 506
Stream size: 16.8 KiB (0%)
Language: English
Default: No
Forced: No

Text #2
ID: 4
Format: UTF-8
Codec ID: S_TEXT/UTF8
Codec ID/Info: UTF-8 Plain Text
Duration: 46 min 18 s
Bit rate: 57 b/s
Frame rate: 0.212 FPS
Count of elements: 590
Stream size: 19.5 KiB (0%)
Title: SDH
Language: English
Default: No
Forced: No

Text #3
ID: 5
Format: UTF-8
Codec ID: S_TEXT/UTF8
Codec ID/Info: UTF-8 Plain Text
Duration: 47 min 26 s
Bit rate: 69 b/s
Frame rate: 0.182 FPS
Count of elements: 518
Stream size: 24.0 KiB (0%)
Language: Arabic
Default: No
Forced: No

Text #4
ID: 6
Format: UTF-8
Codec ID: S_TEXT/UTF8
Codec ID/Info: UTF-8 Plain Text
Duration: 47 min 26 s
Bit rate: 70 b/s
Frame rate: 0.160 FPS
Count of elements: 454
Stream size: 24.3 KiB (0%)
Language: Bulgarian
Default: No
Forced: No

Text #5
ID: 7
Format: UTF-8
Codec ID: S_TEXT/UTF8
Codec ID/Info: UTF-8 Plain Text
Duration: 47 min 26 s
Bit rate: 43 b/s
Frame rate: 0.182 FPS
Count of elements: 517
Stream size: 15.1 KiB (0%)
Title: Chinese (Simplified)
Language: Mandarin (Hans)
Default: No
Forced: No

Text #6
ID: 8
Format: UTF-8
Codec ID: S_TEXT/UTF8
Codec ID/Info: UTF-8 Plain Text
Duration: 47 min 26 s
Bit rate: 46 b/s
Frame rate: 0.182 FPS
Count of elements: 518
Stream size: 16.1 KiB (0%)
Title: Chinese (Traditional)
Language: Mandarin (Hant)
Default: No
Forced: No

Text #7
ID: 9
Format: UTF-8
Codec ID: S_TEXT/UTF8
Codec ID/Info: UTF-8 Plain Text
Duration: 47 min 26 s
Bit rate: 43 b/s
Frame rate: 0.173 FPS
Count of elements: 491
Stream size: 15.0 KiB (0%)
Language: Czech
Default: No
Forced: No

Text #8
ID: 10
Format: UTF-8
Codec ID: S_TEXT/UTF8
Codec ID/Info: UTF-8 Plain Text
Duration: 47 min 26 s
Bit rate: 48 b/s
Frame rate: 0.163 FPS
Count of elements: 463
Stream size: 17.0 KiB (0%)
Language: Danish
Default: No
Forced: No

Text #9
ID: 11
Format: UTF-8
Codec ID: S_TEXT/UTF8
Codec ID/Info: UTF-8 Plain Text
Duration: 47 min 32 s
Bit rate: 44 b/s
Frame rate: 0.167 FPS
Count of elements: 476
Stream size: 15.3 KiB (0%)
Language: German
Default: No
Forced: No

Text #10
ID: 12
Format: UTF-8
Codec ID: S_TEXT/UTF8
Codec ID/Info: UTF-8 Plain Text
Duration: 47 min 26 s
Bit rate: 80 b/s
Frame rate: 0.176 FPS
Count of elements: 502
Stream size: 28.0 KiB (0%)
Language: Greek
Default: No
Forced: No

Text #11
ID: 13
Format: UTF-8
Codec ID: S_TEXT/UTF8
Codec ID/Info: UTF-8 Plain Text
Duration: 47 min 26 s
Bit rate: 50 b/s
Frame rate: 0.183 FPS
Count of elements: 520
Stream size: 17.5 KiB (0%)
Title: Spanish (Latin America)
Language: Spanish (Latin America)
Default: No
Forced: No

Text #12
ID: 14
Format: UTF-8
Codec ID: S_TEXT/UTF8
Codec ID/Info: UTF-8 Plain Text
Duration: 47 min 26 s
Bit rate: 49 b/s
Frame rate: 0.181 FPS
Count of elements: 514
Stream size: 17.1 KiB (0%)
Title: Spanish (Spain)
Language: Spanish (ES)
Default: No
Forced: No

Text #13
ID: 15
Format: UTF-8
Codec ID: S_TEXT/UTF8
Codec ID/Info: UTF-8 Plain Text
Duration: 47 min 26 s
Bit rate: 45 b/s
Frame rate: 0.177 FPS
Count of elements: 503
Stream size: 15.7 KiB (0%)
Language: Estonian
Default: No
Forced: No

Text #14
ID: 16
Format: UTF-8
Codec ID: S_TEXT/UTF8
Codec ID/Info: UTF-8 Plain Text
Duration: 47 min 26 s
Bit rate: 43 b/s
Frame rate: 0.170 FPS
Count of elements: 484
Stream size: 15.0 KiB (0%)
Language: Finnish
Default: No
Forced: No

Text #15
ID: 17
Format: UTF-8
Codec ID: S_TEXT/UTF8
Codec ID/Info: UTF-8 Plain Text
Duration: 47 min 30 s
Bit rate: 45 b/s
Frame rate: 0.176 FPS
Count of elements: 502
Stream size: 15.8 KiB (0%)
Title: French (Canada)
Language: French (CA)
Default: No
Forced: No

Text #16
ID: 18
Format: UTF-8
Codec ID: S_TEXT/UTF8
Codec ID/Info: UTF-8 Plain Text
Duration: 47 min 30 s
Bit rate: 45 b/s
Frame rate: 0.176 FPS
Count of elements: 502
Stream size: 15.8 KiB (0%)
Title: French (France)
Language: French (FR)
Default: No
Forced: No

Text #17
ID: 19
Format: UTF-8
Codec ID: S_TEXT/UTF8
Codec ID/Info: UTF-8 Plain Text
Duration: 47 min 26 s
Bit rate: 70 b/s
Frame rate: 0.182 FPS
Count of elements: 518
Stream size: 24.4 KiB (0%)
Language: Hebrew
Default: No
Forced: No

Text #18
ID: 20
Format: UTF-8
Codec ID: S_TEXT/UTF8
Codec ID/Info: UTF-8 Plain Text
Duration: 47 min 26 s
Bit rate: 132 b/s
Frame rate: 0.182 FPS
Count of elements: 519
Stream size: 46.0 KiB (0%)
Language: Hindi
Default: No
Forced: No

Text #19
ID: 21
Format: UTF-8
Codec ID: S_TEXT/UTF8
Codec ID/Info: UTF-8 Plain Text
Duration: 47 min 26 s
Bit rate: 45 b/s
Frame rate: 0.180 FPS
Count of elements: 512
Stream size: 15.8 KiB (0%)
Language: Hungarian
Default: No
Forced: No

Text #20
ID: 22
Format: UTF-8
Codec ID: S_TEXT/UTF8
Codec ID/Info: UTF-8 Plain Text
Duration: 47 min 26 s
Bit rate: 50 b/s
Frame rate: 0.182 FPS
Count of elements: 517
Stream size: 17.4 KiB (0%)
Language: Indonesian
Default: No
Forced: No

Text #21
ID: 23
Format: UTF-8
Codec ID: S_TEXT/UTF8
Codec ID/Info: UTF-8 Plain Text
Duration: 46 min 51 s
Bit rate: 51 b/s
Frame rate: 0.182 FPS
Count of elements: 513
Stream size: 17.7 KiB (0%)
Language: Italian
Default: No
Forced: No

Text #22
ID: 24
Format: UTF-8
Codec ID: S_TEXT/UTF8
Codec ID/Info: UTF-8 Plain Text
Duration: 47 min 26 s
Bit rate: 39 b/s
Frame rate: 0.170 FPS
Count of elements: 485
Stream size: 13.6 KiB (0%)
Language: Japanese
Default: No
Forced: No

Text #23
ID: 25
Format: UTF-8
Codec ID: S_TEXT/UTF8
Codec ID/Info: UTF-8 Plain Text
Duration: 47 min 26 s
Bit rate: 58 b/s
Frame rate: 0.182 FPS
Count of elements: 518
Stream size: 20.2 KiB (0%)
Language: Korean
Default: No
Forced: No

Text #24
ID: 26
Format: UTF-8
Codec ID: S_TEXT/UTF8
Codec ID/Info: UTF-8 Plain Text
Duration: 47 min 26 s
Bit rate: 49 b/s
Frame rate: 0.182 FPS
Count of elements: 518
Stream size: 17.3 KiB (0%)
Language: Lithuanian
Default: No
Forced: No

Text #25
ID: 27
Format: UTF-8
Codec ID: S_TEXT/UTF8
Codec ID/Info: UTF-8 Plain Text
Duration: 47 min 26 s
Bit rate: 51 b/s
Frame rate: 0.178 FPS
Count of elements: 507
Stream size: 17.7 KiB (0%)
Language: Latvian
Default: No
Forced: No

Text #26
ID: 28
Format: UTF-8
Codec ID: S_TEXT/UTF8
Codec ID/Info: UTF-8 Plain Text
Duration: 47 min 26 s
Bit rate: 47 b/s
Frame rate: 0.182 FPS
Count of elements: 517
Stream size: 16.6 KiB (0%)
Language: Malay
Default: No
Forced: No

Text #27
ID: 29
Format: UTF-8
Codec ID: S_TEXT/UTF8
Codec ID/Info: UTF-8 Plain Text
Duration: 47 min 26 s
Bit rate: 43 b/s
Frame rate: 0.146 FPS
Count of elements: 416
Stream size: 15.2 KiB (0%)
Language: Dutch
Default: No
Forced: No

Text #28
ID: 30
Format: UTF-8
Codec ID: S_TEXT/UTF8
Codec ID/Info: UTF-8 Plain Text
Duration: 47 min 26 s
Bit rate: 41 b/s
Frame rate: 0.143 FPS
Count of elements: 406
Stream size: 14.5 KiB (0%)
Language: Norwegian
Default: No
Forced: No

Text #29
ID: 31
Format: UTF-8
Codec ID: S_TEXT/UTF8
Codec ID/Info: UTF-8 Plain Text
Duration: 47 min 26 s
Bit rate: 43 b/s
Frame rate: 0.167 FPS
Count of elements: 474
Stream size: 15.1 KiB (0%)
Language: Polish
Default: No
Forced: No

Text #30
ID: 32
Format: UTF-8
Codec ID: S_TEXT/UTF8
Codec ID/Info: UTF-8 Plain Text
Duration: 47 min 26 s
Bit rate: 49 b/s
Frame rate: 0.180 FPS
Count of elements: 512
Stream size: 17.2 KiB (0%)
Title: Portuguese
Language: Portuguese
Default: No
Forced: No

Text #31
ID: 33
Format: UTF-8
Codec ID: S_TEXT/UTF8
Codec ID/Info: UTF-8 Plain Text
Duration: 47 min 26 s
Bit rate: 45 b/s
Frame rate: 0.176 FPS
Count of elements: 500
Stream size: 15.7 KiB (0%)
Title: Portuguese (Brazil)
Language: Portuguese (BR)
Default: No
Forced: No

Text #32
ID: 34
Format: UTF-8
Codec ID: S_TEXT/UTF8
Codec ID/Info: UTF-8 Plain Text
Duration: 47 min 32 s
Bit rate: 71 b/s
Frame rate: 0.182 FPS
Count of elements: 520
Stream size: 25.0 KiB (0%)
Language: Russian
Default: No
Forced: No

Text #33
ID: 35
Format: UTF-8
Codec ID: S_TEXT/UTF8
Codec ID/Info: UTF-8 Plain Text
Duration: 47 min 26 s
Bit rate: 45 b/s
Frame rate: 0.182 FPS
Count of elements: 517
Stream size: 15.7 KiB (0%)
Language: Slovak
Default: No
Forced: No

Text #34
ID: 36
Format: UTF-8
Codec ID: S_TEXT/UTF8
Codec ID/Info: UTF-8 Plain Text
Duration: 47 min 26 s
Bit rate: 40 b/s
Frame rate: 0.167 FPS
Count of elements: 476
Stream size: 14.0 KiB (0%)
Language: Slovenian
Default: No
Forced: No

Text #35
ID: 37
Format: UTF-8
Codec ID: S_TEXT/UTF8
Codec ID/Info: UTF-8 Plain Text
Duration: 47 min 26 s
Bit rate: 49 b/s
Frame rate: 0.182 FPS
Count of elements: 517
Stream size: 17.0 KiB (0%)
Language: Swedish
Default: No
Forced: No

Text #36
ID: 38
Format: UTF-8
Codec ID: S_TEXT/UTF8
Codec ID/Info: UTF-8 Plain Text
Duration: 47 min 26 s
Bit rate: 154 b/s
Frame rate: 0.182 FPS
Count of elements: 518
Stream size: 53.5 KiB (0%)
Language: Tamil
Default: No
Forced: No

Text #37
ID: 39
Format: UTF-8
Codec ID: S_TEXT/UTF8
Codec ID/Info: UTF-8 Plain Text
Duration: 47 min 26 s
Bit rate: 148 b/s
Frame rate: 0.182 FPS
Count of elements: 518
Stream size: 51.7 KiB (0%)
Language: Telugu
Default: No
Forced: No

Text #38
ID: 40
Format: UTF-8
Codec ID: S_TEXT/UTF8
Codec ID/Info: UTF-8 Plain Text
Duration: 47 min 26 s
Bit rate: 124 b/s
Frame rate: 0.182 FPS
Count of elements: 517
Stream size: 43.4 KiB (0%)
Language: Thai
Default: No
Forced: No

Text #39
ID: 41
Format: UTF-8
Codec ID: S_TEXT/UTF8
Codec ID/Info: UTF-8 Plain Text
Duration: 47 min 26 s
Bit rate: 48 b/s
Frame rate: 0.175 FPS
Count of elements: 498
Stream size: 16.9 KiB (0%)
Language: Turkish
Default: No
Forced: No

Text #40
ID: 42
Format: UTF-8
Codec ID: S_TEXT/UTF8
Codec ID/Info: UTF-8 Plain Text
Duration: 47 min 26 s
Bit rate: 71 b/s
Frame rate: 0.182 FPS
Count of elements: 519
Stream size: 25.0 KiB (0%)
Language: Ukrainian
Default: No
Forced: No

Text #41
ID: 43
Format: UTF-8
Codec ID: S_TEXT/UTF8
Codec ID/Info: UTF-8 Plain Text
Duration: 47 min 26 s
Bit rate: 64 b/s
Frame rate: 0.182 FPS
Count of elements: 517
Stream size: 22.3 KiB (0%)
Language: Vietnamese
Default: No
Forced: No

Text #42
ID: 44
Format: UTF-8
Codec ID: S_TEXT/UTF8
Codec ID/Info: UTF-8 Plain Text
Duration: 47 min 26 s
Bit rate: 42 b/s
Frame rate: 0.182 FPS
Count of elements: 518
Stream size: 14.9 KiB (0%)
Title: Cantonese (Traditional)
Language: Cantonese (Hant)
Default: No
Forced: No

Menu
00:00:00.000: en:Chapter 1
00:02:29.958: en:Intro
00:03:46.916: en:Chapter 2
ssl  EZTV RSS EZTV Status | EZTV API | DMCA: [email protected]