eztv.wf | eztvstatus.org
Search title:  
TV Packs only
 

A Small Light S01E02 Welcome to Switzerland 1080p DSNP WEBRip DDP5 1 x264-NTb EZTV

Episode Breakdown
A Small Light
A Small Light TV Show S01E02

Season: 1
Episode: 2
Air Date: 1 May, 2023
Download Links
     Torrent Download     Magnet Download
     Anonymous Download
Added 1 year ago by eztv (verified).
Tracker Statistics
Seeds: 0
Peers: 0
Stats generated @ 16:30 on 29th May 2024
Torrent Info
Torrent File: A.Small.Light.S01E02.Welcome.to.Switzerland.1080p.DSNP.WEB-DL.DDP5.1.H.264-NTb[eztv.re].mkv
Torrent Hash: BE857D0D6286B229F3BB154DF3401AD0A5BD5044
Filesize: 2.21 GB
Released: 10th May 2023

File Format: MKV (Matroska)
Resolution: 1920x1080 px
Aspect Ratio: 16:9
Alternate Releases S L
A Small Light S01E02 720p WEB h264-EDITH 2 0
A Small Light S01E02 720p HEVC x265-MeGusta 1 0
A Small Light S01E02 480p x264-mSD 2 0
A Small Light S01E02 XviD-AFG 0 0
A Small Light S01E02 1080p WEB H264-GLHF 3 1
A Small Light S01E02 Welcome to Switzerland 1080p AMZN WEBRip DDP5 1 x264-NTb 0 0
A Small Light S01E02 1080p HEVC x265-MeGusta 1 0

A Small Light S01E02 - Welcome to Switzerland

Summary:

With the Frank family secure in the Secret Annex, Miep's Jewish dentist asks if she knows of a place where he can hide. Overcome by the need to help just one more person, Miep finds new and more dangerous ways to evade the Nazis.
 



A Small Light S01E02 Welcome to Switzerland 1080p DSNP WEBRip DDP5 1 x264-NTb EZTV
A Small Light S1E2 Screenshot


General
Unique ID: 306553458817451898037615549666527312091 (0xE6A00C705785342FB4788F0AB8AC78DB)
Complete name: A.Small.Light.S01E02.Welcome.to.Switzerland.1080p.DSNP.WEB-DL.DDP5.1.H.264-NTb.mkv
Format: Matroska
Format version: Version 4
File size: 2.21 GiB
Duration: 53 min 43 s
Overall bit rate mode: Variable
Overall bit rate: 5 901 kb/s
Writing application: mkvmerge v75.0.0 ('Goliath') 64-bit
Writing library: libebml v1.4.4 + libmatroska v1.7.1

Video
ID: 1
Format: AVC
Format/Info: Advanced Video Codec
Format profile: High@L4
Format settings: CABAC / 4 Ref Frames
Format settings, CABAC: Yes
Format settings, Reference frames: 4 frames
Codec ID: V_MPEG4/ISO/AVC
Duration: 53 min 43 s
Bit rate mode: Variable
Bit rate: 5 127 kb/s
Maximum bit rate: 12.7 Mb/s
Width: 1 920 pixels
Height: 1 080 pixels
Display aspect ratio: 16:9
Frame rate mode: Constant
Frame rate: 23.976 (24000/1001) FPS
Color space: YUV
Chroma subsampling: 4:2:0
Bit depth: 8 bits
Scan type: Progressive
Bits/(Pixel*Frame): 0.103
Stream size: 1.92 GiB (87%)
Default: Yes
Forced: No
Color range: Limited
Color primaries: BT.709
Transfer characteristics: BT.709
Matrix coefficients: BT.709

Audio
ID: 2
Format: E-AC-3 JOC
Format/Info: Enhanced AC-3 with Joint Object Coding
Commercial name: Dolby Digital Plus with Dolby Atmos
Format settings: Dolby Surround EX
Codec ID: A_EAC3
Duration: 53 min 43 s
Bit rate mode: Constant
Bit rate: 768 kb/s
Channel(s): 6 channels
Channel layout: L R C LFE Ls Rs
Sampling rate: 48.0 kHz
Frame rate: 31.250 FPS (1536 SPF)
Compression mode: Lossy
Stream size: 295 MiB (13%)
Language: English
Service kind: Complete Main
Default: Yes
Forced: No
Complexity index: 16
Number of dynamic objects: 15
Bed channel count: 1 channel
Bed channel configuration: LFE

Text #1
ID: 3
Format: UTF-8
Codec ID: S_TEXT/UTF8
Codec ID/Info: UTF-8 Plain Text
Duration: 32 s 116 ms
Bit rate: 18 b/s
Frame rate: 0.125 FPS
Count of elements: 4
Stream size: 75.0 Bytes (0%)
Title: Forced
Language: English
Default: Yes
Forced: Yes

Text #2
ID: 4
Format: UTF-8
Codec ID: S_TEXT/UTF8
Codec ID/Info: UTF-8 Plain Text
Duration: 51 min 57 s
Bit rate: 82 b/s
Frame rate: 0.278 FPS
Count of elements: 868
Stream size: 31.4 KiB (0%)
Language: English
Default: No
Forced: No

Text #3
ID: 5
Format: UTF-8
Codec ID: S_TEXT/UTF8
Codec ID/Info: UTF-8 Plain Text
Duration: 53 min 33 s
Bit rate: 97 b/s
Frame rate: 0.307 FPS
Count of elements: 988
Stream size: 38.2 KiB (0%)
Title: SDH
Language: English
Default: No
Forced: No

Text #4
ID: 6
Format: UTF-8
Codec ID: S_TEXT/UTF8
Codec ID/Info: UTF-8 Plain Text
Duration: 53 min 25 s
Bit rate: 73 b/s
Frame rate: 0.253 FPS
Count of elements: 812
Stream size: 28.7 KiB (0%)
Language: Czech
Default: No
Forced: No

Text #5
ID: 7
Format: UTF-8
Codec ID: S_TEXT/UTF8
Codec ID/Info: UTF-8 Plain Text
Duration: 53 min 25 s
Bit rate: 75 b/s
Frame rate: 0.252 FPS
Count of elements: 809
Stream size: 29.7 KiB (0%)
Language: Danish
Default: No
Forced: No

Text #6
ID: 8
Format: UTF-8
Codec ID: S_TEXT/UTF8
Codec ID/Info: UTF-8 Plain Text
Duration: 53 min 25 s
Bit rate: 75 b/s
Frame rate: 0.252 FPS
Count of elements: 807
Stream size: 29.5 KiB (0%)
Language: German
Default: No
Forced: No

Text #7
ID: 9
Format: UTF-8
Codec ID: S_TEXT/UTF8
Codec ID/Info: UTF-8 Plain Text
Duration: 53 min 25 s
Bit rate: 128 b/s
Frame rate: 0.254 FPS
Count of elements: 814
Stream size: 50.1 KiB (0%)
Language: Greek
Default: No
Forced: No

Text #8
ID: 10
Format: UTF-8
Codec ID: S_TEXT/UTF8
Codec ID/Info: UTF-8 Plain Text
Duration: 53 min 25 s
Bit rate: 79 b/s
Frame rate: 0.258 FPS
Count of elements: 827
Stream size: 31.0 KiB (0%)
Title: Spanish (Latin America)
Language: Spanish (Latin America)
Default: No
Forced: No

Text #9
ID: 11
Format: UTF-8
Codec ID: S_TEXT/UTF8
Codec ID/Info: UTF-8 Plain Text
Duration: 53 min 25 s
Bit rate: 72 b/s
Frame rate: 0.254 FPS
Count of elements: 813
Stream size: 28.4 KiB (0%)
Title: Spanish (Spain)
Language: Spanish (ES)
Default: No
Forced: No

Text #10
ID: 12
Format: UTF-8
Codec ID: S_TEXT/UTF8
Codec ID/Info: UTF-8 Plain Text
Duration: 53 min 25 s
Bit rate: 73 b/s
Frame rate: 0.253 FPS
Count of elements: 811
Stream size: 28.9 KiB (0%)
Language: Finnish
Default: No
Forced: No

Text #11
ID: 13
Format: UTF-8
Codec ID: S_TEXT/UTF8
Codec ID/Info: UTF-8 Plain Text
Duration: 53 min 25 s
Bit rate: 74 b/s
Frame rate: 0.254 FPS
Count of elements: 813
Stream size: 29.0 KiB (0%)
Language: French (FR)
Default: No
Forced: No

Text #12
ID: 14
Format: UTF-8
Codec ID: S_TEXT/UTF8
Codec ID/Info: UTF-8 Plain Text
Duration: 53 min 25 s
Bit rate: 75 b/s
Frame rate: 0.249 FPS
Count of elements: 797
Stream size: 29.5 KiB (0%)
Language: Hungarian
Default: No
Forced: No

Text #13
ID: 15
Format: UTF-8
Codec ID: S_TEXT/UTF8
Codec ID/Info: UTF-8 Plain Text
Duration: 53 min 25 s
Bit rate: 68 b/s
Frame rate: 0.253 FPS
Count of elements: 811
Stream size: 26.9 KiB (0%)
Language: Italian
Default: No
Forced: No

Text #14
ID: 16
Format: UTF-8
Codec ID: S_TEXT/UTF8
Codec ID/Info: UTF-8 Plain Text
Duration: 53 min 25 s
Bit rate: 62 b/s
Frame rate: 0.267 FPS
Count of elements: 856
Stream size: 24.5 KiB (0%)
Language: Japanese
Default: No
Forced: No

Text #15
ID: 17
Format: UTF-8
Codec ID: S_TEXT/UTF8
Codec ID/Info: UTF-8 Plain Text
Duration: 53 min 25 s
Bit rate: 82 b/s
Frame rate: 0.260 FPS
Count of elements: 833
Stream size: 32.3 KiB (0%)
Language: Korean
Default: No
Forced: No

Text #16
ID: 18
Format: UTF-8
Codec ID: S_TEXT/UTF8
Codec ID/Info: UTF-8 Plain Text
Duration: 53 min 25 s
Bit rate: 73 b/s
Frame rate: 0.245 FPS
Count of elements: 785
Stream size: 28.6 KiB (0%)
Language: Dutch
Default: No
Forced: No

Text #17
ID: 19
Format: UTF-8
Codec ID: S_TEXT/UTF8
Codec ID/Info: UTF-8 Plain Text
Duration: 53 min 25 s
Bit rate: 76 b/s
Frame rate: 0.253 FPS
Count of elements: 811
Stream size: 30.0 KiB (0%)
Language: Norwegian
Default: No
Forced: No

Text #18
ID: 20
Format: UTF-8
Codec ID: S_TEXT/UTF8
Codec ID/Info: UTF-8 Plain Text
Duration: 53 min 25 s
Bit rate: 68 b/s
Frame rate: 0.253 FPS
Count of elements: 811
Stream size: 26.6 KiB (0%)
Language: Polish
Default: No
Forced: No

Text #19
ID: 21
Format: UTF-8
Codec ID: S_TEXT/UTF8
Codec ID/Info: UTF-8 Plain Text
Duration: 53 min 25 s
Bit rate: 76 b/s
Frame rate: 0.253 FPS
Count of elements: 811
Stream size: 30.1 KiB (0%)
Title: Portuguese (Brazil)
Language: Portuguese (BR)
Default: No
Forced: No

Text #20
ID: 22
Format: UTF-8
Codec ID: S_TEXT/UTF8
Codec ID/Info: UTF-8 Plain Text
Duration: 53 min 24 s
Bit rate: 72 b/s
Frame rate: 0.253 FPS
Count of elements: 812
Stream size: 28.5 KiB (0%)
Title: Portuguese (Portugal)
Language: Portuguese (PT)
Default: No
Forced: No

Text #21
ID: 23
Format: UTF-8
Codec ID: S_TEXT/UTF8
Codec ID/Info: UTF-8 Plain Text
Duration: 53 min 25 s
Bit rate: 71 b/s
Frame rate: 0.251 FPS
Count of elements: 806
Stream size: 27.9 KiB (0%)
Language: Romanian
Default: No
Forced: No

Text #22
ID: 24
Format: UTF-8
Codec ID: S_TEXT/UTF8
Codec ID/Info: UTF-8 Plain Text
Duration: 53 min 25 s
Bit rate: 73 b/s
Frame rate: 0.253 FPS
Count of elements: 811
Stream size: 28.7 KiB (0%)
Language: Slovak
Default: No
Forced: No

Text #23
ID: 25
Format: UTF-8
Codec ID: S_TEXT/UTF8
Codec ID/Info: UTF-8 Plain Text
Duration: 53 min 25 s
Bit rate: 72 b/s
Frame rate: 0.250 FPS
Count of elements: 802
Stream size: 28.3 KiB (0%)
Language: Swedish
Default: No
Forced: No

Text #24
ID: 26
Format: UTF-8
Codec ID: S_TEXT/UTF8
Codec ID/Info: UTF-8 Plain Text
Duration: 53 min 25 s
Bit rate: 76 b/s
Frame rate: 0.253 FPS
Count of elements: 812
Stream size: 29.9 KiB (0%)
Language: Turkish
Default: No
Forced: No

Text #25
ID: 27
Format: UTF-8
Codec ID: S_TEXT/UTF8
Codec ID/Info: UTF-8 Plain Text
Duration: 53 min 25 s
Bit rate: 64 b/s
Frame rate: 0.254 FPS
Count of elements: 814
Stream size: 25.3 KiB (0%)
Language: Chinese (Traditional)
Default: No
Forced: No

Menu
00:00:00.000: en:Recap
00:01:00.561: en:Chapter 1
00:01:00.853: en:Intro
00:01:20.873: en:Chapter 2
00:09:26.567: en:Chapter 3
00:24:42.649: en:Chapter 4
00:31:07.576: en:Chapter 5
00:45:18.760: en:Chapter 6
00:52:22.017: en:Credits
ssl  EZTV RSS EZTV Status | EZTV API | DMCA: [email protected]