eztv.wf | eztvstatus.org
Search title:  
TV Packs only
 

A Small Light S01E06 Boiling Point 1080p AMZN WEBRip DDP5 1 x264-NTb EZTV

Episode Breakdown
A Small Light
A Small Light TV Show S01E06

Season: 1
Episode: 6
Air Date: 15 May, 2023
Download Links
     Torrent Download     Magnet Download
     Anonymous Download
Added 1 year ago by eztv (verified).
Tracker Statistics
Seeds: 0
Peers: 0
Stats generated @ 16:18 on 29th May 2024
Torrent Info
Torrent File: A.Small.Light.S01E06.Boiling.Point.1080p.AMZN.WEB-DL.DDP5.1.H.264-NTb[eztv.re].mkv
Torrent Hash: 32596C7FCACEE583CE2CE93DC4A3293917EA8388
Filesize: 2.33 GB
Released: 16th May 2023

File Format: MKV (Matroska)
Resolution: 1920x1080 px
Aspect Ratio: 16:9
Alternate Releases S L
A Small Light S01E06 1080p WEB H264-CAKES 1 3
A Small Light S01E06 720p WEB h264-EDITH 0 0
A Small Light S01E06 XviD-AFG 1 0
A Small Light S01E06 480p x264-mSD 3 0
A Small Light S01E06 1080p HEVC x265-MeGusta 0 0
A Small Light S01E06 720p HEVC x265-MeGusta 1 0
A Small Light S01E06 Boiling Point 1080p DSNP WEBRip DDP5 1 x264-NTb 0 0

A Small Light S01E06 - Boiling Point

Summary:

As Nazi crackdowns increase in Amsterdam, Miep must hide an innocent student from her new Nazi neighbor. When a desperate friend begs for help finding a way out of the city, Jan finds an unexpected ally and hatches a plan.



A Small Light S01E06 Boiling Point 1080p AMZN WEBRip DDP5 1 x264-NTb EZTV
A Small Light S1E6 Screenshot


General
Unique ID: 266288326500443429680409709925985166309 (0xC8554424AFD56DB126A4D724B60C23E5)
Complete name: A.Small.Light.S01E06.Boiling.Point.1080p.AMZN.WEB-DL.DDP5.1.H.264-NTb.mkv
Format: Matroska
Format version: Version 4
File size: 2.33 GiB
Duration: 50 min 9 s
Overall bit rate: 6 657 kb/s
Writing application: mkvmerge v75.0.0 ('Goliath') 64-bit
Writing library: libebml v1.4.4 + libmatroska v1.7.1

Video
ID: 1
Format: AVC
Format/Info: Advanced Video Codec
Format profile: High@L4
Format settings: CABAC / 4 Ref Frames
Format settings, CABAC: Yes
Format settings, Reference frames: 4 frames
Codec ID: V_MPEG4/ISO/AVC
Duration: 50 min 9 s
Bit rate mode: Constant
Bit rate: 6 015 kb/s
Nominal bit rate: 10 000 kb/s
Width: 1 920 pixels
Height: 1 080 pixels
Display aspect ratio: 16:9
Frame rate mode: Constant
Frame rate: 23.976 (24000/1001) FPS
Color space: YUV
Chroma subsampling: 4:2:0
Bit depth: 8 bits
Scan type: Progressive
Bits/(Pixel*Frame): 0.121
Stream size: 2.11 GiB (90%)
Default: Yes
Forced: No
Color range: Limited
Color primaries: BT.709
Transfer characteristics: BT.709
Matrix coefficients: BT.709

Audio
ID: 2
Format: E-AC-3
Format/Info: Enhanced AC-3
Commercial name: Dolby Digital Plus
Codec ID: A_EAC3
Duration: 50 min 9 s
Bit rate mode: Constant
Bit rate: 640 kb/s
Channel(s): 6 channels
Channel layout: L R C LFE Ls Rs
Sampling rate: 48.0 kHz
Frame rate: 31.250 FPS (1536 SPF)
Compression mode: Lossy
Stream size: 230 MiB (10%)
Language: English
Service kind: Complete Main
Default: Yes
Forced: No

Text #1
ID: 3
Format: UTF-8
Codec ID: S_TEXT/UTF8
Codec ID/Info: UTF-8 Plain Text
Duration: 49 min 53 s
Bit rate: 77 b/s
Frame rate: 0.327 FPS
Count of elements: 979
Stream size: 28.5 KiB (0%)
Language: English (US)
Default: No
Forced: No

Text #2
ID: 4
Format: UTF-8
Codec ID: S_TEXT/UTF8
Codec ID/Info: UTF-8 Plain Text
Duration: 49 min 53 s
Bit rate: 89 b/s
Frame rate: 0.349 FPS
Count of elements: 1046
Stream size: 32.8 KiB (0%)
Title: SDH
Language: English (US)
Default: No
Forced: No

Menu
00:00:00.000: en:Chapter 1
00:11:40.960: en:Chapter 2
00:22:19.961: en:Chapter 3
00:28:05.956: en:Chapter 4
00:34:32.960: en:Chapter 5
00:39:40.972: en:Chapter 6
00:49:02.976: en:Credits
ssl  EZTV RSS EZTV Status | EZTV API | DMCA: [email protected]