eztv.wf | eztvstatus.org
Search title:  
TV Packs only
 

A Small Light S01E08 Legacy 1080p AMZN WEBRip DDP5 1 x264-NTb EZTV

Episode Breakdown
A Small Light
A Small Light TV Show S01E08

Season: 1
Episode: 8
Air Date: 22 May, 2023
Download Links
     Torrent Download     Magnet Download
     Anonymous Download
Added 1 year ago by eztv (verified).
Tracker Statistics
Seeds: 0
Peers: 0
Stats generated @ 17:03 on 29th May 2024
Torrent Info
Torrent File: A.Small.Light.S01E08.Legacy.1080p.AMZN.WEB-DL.DDP5.1.H.264-NTb[eztv.re].mkv
Torrent Hash: 451622D8327FD22F95A177CF06B1290C97915741
Filesize: 2.29 GB
Released: 24th May 2023

File Format: MKV (Matroska)
Resolution: 1920x1080 px
Aspect Ratio: 16:9
Alternate Releases S L
A Small Light S01E08 1080p WEB H264-CAKES 1 0
A Small Light S01E08 720p WEB h264-EDITH 0 0
A Small Light S01E08 480p x264-mSD 2 0
A Small Light S01E08 XviD-AFG 0 0
A Small Light S01E08 1080p HEVC x265-MeGusta 0 0
A Small Light S01E08 720p HEVC x265-MeGusta 1 0
A Small Light S01E08 Legacy 1080p DSNP WEBRip DDP5 1 x264-NTb 0 0

A Small Light S01E08 - Legacy

Summary:

Chapter 8: With the war ending, Miep and Jan try to find the Franks and other Jewish residents of the annex.



A Small Light S01E08 Legacy 1080p AMZN WEBRip DDP5 1 x264-NTb EZTV
A Small Light S1E8 Screenshot


General
Unique ID: 184763420707767012242809317915340649505 (0x8B0023F4FAEB79ACFB01443EE9453421)
Complete name: A.Small.Light.S01E08.Legacy.1080p.AMZN.WEB-DL.DDP5.1.H.264-NTb.mkv
Format: Matroska
Format version: Version 4
File size: 2.29 GiB
Duration: 53 min 56 s
Overall bit rate: 6 077 kb/s
Writing application: mkvmerge v75.0.0 ('Goliath') 64-bit
Writing library: libebml v1.4.4 + libmatroska v1.7.1

Video
ID: 1
Format: AVC
Format/Info: Advanced Video Codec
Format profile: High@L4
Format settings: CABAC / 4 Ref Frames
Format settings, CABAC: Yes
Format settings, Reference frames: 4 frames
Codec ID: V_MPEG4/ISO/AVC
Duration: 53 min 56 s
Bit rate mode: Constant
Bit rate: 5 434 kb/s
Nominal bit rate: 10 000 kb/s
Width: 1 920 pixels
Height: 1 080 pixels
Display aspect ratio: 16:9
Frame rate mode: Constant
Frame rate: 23.976 (24000/1001) FPS
Color space: YUV
Chroma subsampling: 4:2:0
Bit depth: 8 bits
Scan type: Progressive
Bits/(Pixel*Frame): 0.109
Stream size: 2.05 GiB (89%)
Default: Yes
Forced: No
Color range: Limited
Color primaries: BT.709
Transfer characteristics: BT.709
Matrix coefficients: BT.709

Audio
ID: 2
Format: E-AC-3
Format/Info: Enhanced AC-3
Commercial name: Dolby Digital Plus
Codec ID: A_EAC3
Duration: 53 min 56 s
Bit rate mode: Constant
Bit rate: 640 kb/s
Channel(s): 6 channels
Channel layout: L R C LFE Ls Rs
Sampling rate: 48.0 kHz
Frame rate: 31.250 FPS (1536 SPF)
Compression mode: Lossy
Stream size: 247 MiB (11%)
Language: English
Service kind: Complete Main
Default: Yes
Forced: No

Text #1
ID: 3
Format: UTF-8
Codec ID: S_TEXT/UTF8
Codec ID/Info: UTF-8 Plain Text
Duration: 53 min 44 s
Bit rate: 57 b/s
Frame rate: 0.245 FPS
Count of elements: 789
Stream size: 22.6 KiB (0%)
Language: English (US)
Default: No
Forced: No

Text #2
ID: 4
Format: UTF-8
Codec ID: S_TEXT/UTF8
Codec ID/Info: UTF-8 Plain Text
Duration: 53 min 44 s
Bit rate: 64 b/s
Frame rate: 0.264 FPS
Count of elements: 850
Stream size: 25.4 KiB (0%)
Title: SDH
Language: English (US)
Default: No
Forced: No

Menu
00:00:00.000: en:Chapter 1
00:10:13.961: en:Chapter 2
00:19:16.956: en:Chapter 3
00:24:47.973: en:Chapter 4
00:31:36.959: en:Chapter 5
00:39:51.972: en:Chapter 6
00:52:45.965: en:Credits
ssl  EZTV RSS EZTV Status | EZTV API | DMCA: [email protected]