eztv.wf | eztvstatus.org
Search title:  
TV Packs only
 

Clone High 2023 S01E01 Lets Try This Again 1080p MAX WEBRip DDP5 1 x264-NTb EZTV

Episode Breakdown
Clone High
Clone High TV Show S01E01

Season: 1
Episode: 1
Air Date: 23 May, 2023
Download Links
     Torrent Download     Magnet Download
     Anonymous Download
Added 1 year ago by eztv (verified).
Tracker Statistics
Seeds: 9
Peers: 0
Stats generated @ 16:20 on 29th May 2024
Torrent Info
Torrent File: Clone.High.2023.S01E01.Let's.Try.This.Again.1080p.MAX.WEB-DL.DD+5.1.H.264-NTb[eztv.re].mkv
Torrent Hash: 8EAA0E51A913FDC651C5CD3B787CDA3B3D12D999
Filesize: 1.75 GB
Released: 25th May 2023

File Format: MKV (Matroska)
Resolution: 1920x1080 px
Aspect Ratio: 16:9
Alternate Releases S L
Clone High 2023 S01E01 1080p WEB H264-GGEZ 2 2
Clone High 2023 S01E01 720p WEB x265-MiNX 1 0
Clone High 2023 S01E01 1080p HEVC x265-MeGusta 1 1
Clone High 2023 S01E01 480p x264-mSD 1 0
Clone High 2023 S01E01 XviD-AFG 0 0

Clone High S01E01 - Let's Try This Again

Summary:

The clones unfreeze and meet the newest batch of clones created by Principal Dr. Cinnamon J. Scudworth.



Clone High 2023 S01E01 Lets Try This Again 1080p MAX WEBRip DDP5 1 x264-NTb EZTV
Clone High S1E1 Screenshot


General
Unique ID: 147930557411710908769765770476942053623 (0x6F4A6396DFD9DB91A486AFB2BA80D0F7)
Complete name: Clone.High.2023.S01E01.Let's.Try.This.Again.1080p.MAX.WEB-DL.DD+5.1.H.264-NTb.mkv
Format: Matroska
Format version: Version 4
File size: 1.75 GiB
Duration: 25 min 41 s
Overall bit rate mode: Variable
Overall bit rate: 9 739 kb/s
Writing application: mkvmerge v75.0.0 ('Goliath') 64-bit
Writing library: libebml v1.4.4 + libmatroska v1.7.1

Video
ID: 1
Format: AVC
Format/Info: Advanced Video Codec
Format profile: [email protected]
Format settings: CABAC / 4 Ref Frames
Format settings, CABAC: Yes
Format settings, Reference frames: 4 frames
Codec ID: V_MPEG4/ISO/AVC
Duration: 25 min 41 s
Bit rate mode: Variable
Bit rate: 9 481 kb/s
Maximum bit rate: 10 000 kb/s
Width: 1 920 pixels
Height: 1 080 pixels
Display aspect ratio: 16:9
Frame rate mode: Constant
Frame rate: 23.976 (24000/1001) FPS
Color space: YUV
Chroma subsampling: 4:2:0
Bit depth: 8 bits
Scan type: Progressive
Bits/(Pixel*Frame): 0.191
Stream size: 1.70 GiB (97%)
Writing library: x264 core 164
Encoding settings: cabac=1 / ref=4 / deblock=1:0:0 / analyse=0x3:0x133 / me=umh / subme=10 / psy=1 / psy_rd=1.00:0.00 / mixed_ref=1 / me_range=24 / chroma_me=1 / trellis=2 / 8x8dct=1 / cqm=0 / deadzone=21,11 / fast_pskip=1 / chroma_qp_offset=-2 / threads=34 / lookahead_threads=2 / sliced_threads=0 / nr=0 / decimate=1 / interlaced=0 / bluray_compat=0 / stitchable=1 / constrained_intra=0 / bframes=3 / b_pyramid=2 / b_adapt=2 / b_bias=0 / direct=3 / weightb=1 / open_gop=0 / weightp=2 / keyint=96 / keyint_min=49 / scenecut=0 / intra_refresh=0 / rc_lookahead=96 / rc=crf / mbtree=1 / crf=20.0 / qcomp=0.60 / qpmin=0 / qpmax=69 / qpstep=4 / vbv_maxrate=10000 / vbv_bufsize=40000 / crf_max=0.0 / nal_hrd=vbr / filler=0 / ip_ratio=1.40 / aq=1:1.00
Default: Yes
Forced: No
Color range: Limited
Color primaries: BT.709
Transfer characteristics: BT.709
Matrix coefficients: BT.709

Audio
ID: 2
Format: E-AC-3
Format/Info: Enhanced AC-3
Commercial name: Dolby Digital Plus
Codec ID: A_EAC3
Duration: 25 min 41 s
Bit rate mode: Constant
Bit rate: 256 kb/s
Channel(s): 6 channels
Channel layout: L R C LFE Ls Rs
Sampling rate: 48.0 kHz
Frame rate: 31.250 FPS (1536 SPF)
Compression mode: Lossy
Stream size: 47.1 MiB (3%)
Language: English (US)
Service kind: Complete Main
Default: Yes
Forced: No

Text #1
ID: 3
Format: UTF-8
Codec ID: S_TEXT/UTF8
Codec ID/Info: UTF-8 Plain Text
Duration: 25 min 32 s
Bit rate: 97 b/s
Frame rate: 0.336 FPS
Count of elements: 515
Stream size: 18.3 KiB (0%)
Language: English (US)
Default: No
Forced: No

Text #2
ID: 4
Format: UTF-8
Codec ID: S_TEXT/UTF8
Codec ID/Info: UTF-8 Plain Text
Duration: 25 min 32 s
Bit rate: 110 b/s
Frame rate: 0.363 FPS
Count of elements: 557
Stream size: 20.6 KiB (0%)
Title: SDH
Language: English (US)
Default: No
Forced: No

Text #3
ID: 5
Format: UTF-8
Codec ID: S_TEXT/UTF8
Codec ID/Info: UTF-8 Plain Text
Duration: 24 min 40 s
Bit rate: 100 b/s
Frame rate: 0.359 FPS
Count of elements: 532
Stream size: 18.1 KiB (0%)
Language: Spanish (Latin America)
Default: No
Forced: No

Text #4
ID: 6
Format: UTF-8
Codec ID: S_TEXT/UTF8
Codec ID/Info: UTF-8 Plain Text
Duration: 24 min 40 s
Bit rate: 108 b/s
Frame rate: 0.358 FPS
Count of elements: 530
Stream size: 19.7 KiB (0%)
Language: Portuguese (BR)
Default: No
Forced: No

Menu
00:00:00.000: en:Chapter 1
00:02:18.638: en:Intro
00:03:06.395: en:Chapter 2
00:09:17.765: en:Chapter 3
00:19:36.633: en:Chapter 4
00:24:41.772: en:Credits
00:25:32.656: en:Chapter 5
ssl  EZTV RSS EZTV Status | EZTV API | DMCA: [email protected]