eztv.wf | eztvstatus.org
Search title:  
TV Packs only
 

Silo S01E06 The Relic 1080p ATVP WEB-DL DDP5 1 H 264-NTb EZTV

Episode Breakdown
Silo
Silo TV Show S01E06

Season: 1
Episode: 6
Air Date: 2 June, 2023
Download Links
     Torrent Download     Magnet Download
     Anonymous Download
Added 1 year ago by eztv (verified).
Tracker Statistics
Seeds: 11
Peers: 1
Stats generated @ 21:36 on 18th Jun 2024
Torrent Info
Torrent File: Silo.S01E06.The.Relic.1080p.ATVP.WEB-DL.DDP5.1.H.264-NTb[eztv.re].mkv
Torrent Hash: 38978ED6AAC4168130C4FE9464500B224949A639
Filesize: 3.84 GB
Released: 1st Jun 2023

File Format: MKV (Matroska)
Resolution: 1920x1080 px
Aspect Ratio: 16:9
Alternate Releases S L
Silo S01E06 720p WEB H264-CAKES 32 0
Silo S01E06 1080p WEB H264-CAKES 106 1
Silo S01E06 720p HEVC x265-MeGusta 11 0
Silo S01E06 480p x264-mSD 9 0
Silo S01E06 XviD-AFG 7 1
Silo S01E06 1080p HEVC x265-MeGusta 69 7
Silo S01E06 MULTI 1080p WEB H264-HiggsBoson 0 0

Silo S01E06 - The Relic

Summary:

During her investigation, Juliette uncovers disturbing secrets about someone she thought she knew.



Silo S01E06 The Relic 1080p ATVP WEB-DL DDP5 1 H 264-NTb EZTV
Silo S1E6 Screenshot


General
Unique ID: 313308414218953009895516430821932328816 (0xEBB5017410E346CC7D766D091F92E770)
Complete name: Silo.S01E06.The.Relic.1080p.ATVP.WEB-DL.DDP5.1.H.264-NTb.mkv
Format: Matroska
Format version: Version 4
File size: 3.84 GiB
Duration: 50 min 38 s
Overall bit rate: 10.9 Mb/s
Writing application: mkvmerge v76.0 ('Celebration') 64-bit
Writing library: libebml v1.4.4 + libmatroska v1.7.1

Video
ID: 1
Format: AVC
Format/Info: Advanced Video Codec
Format profile: High@L4
Format settings: CABAC / 4 Ref Frames
Format settings, CABAC: Yes
Format settings, Reference frames: 4 frames
Codec ID: V_MPEG4/ISO/AVC
Duration: 50 min 38 s
Bit rate: 10.1 Mb/s
Width: 1 920 pixels
Height: 960 pixels
Display aspect ratio: 2.000
Frame rate mode: Constant
Frame rate: 23.976 (24000/1001) FPS
Color space: YUV
Chroma subsampling: 4:2:0
Bit depth: 8 bits
Scan type: Progressive
Bits/(Pixel*Frame): 0.228
Stream size: 3.57 GiB (93%)
Default: Yes
Forced: No
Color range: Limited
Color primaries: BT.709
Transfer characteristics: BT.709
Matrix coefficients: BT.709

Audio
ID: 2
Format: E-AC-3 JOC
Format/Info: Enhanced AC-3 with Joint Object Coding
Commercial name: Dolby Digital Plus with Dolby Atmos
Codec ID: A_EAC3
Duration: 50 min 38 s
Bit rate mode: Constant
Bit rate: 768 kb/s
Channel(s): 6 channels
Channel layout: L R C LFE Ls Rs
Sampling rate: 48.0 kHz
Frame rate: 31.250 FPS (1536 SPF)
Compression mode: Lossy
Stream size: 278 MiB (7%)
Language: English
Service kind: Complete Main
Default: Yes
Forced: No
Complexity index: 16
Number of dynamic objects: 15
Bed channel count: 1 channel
Bed channel configuration: LFE

Text #1
ID: 3
Format: UTF-8
Codec ID: S_TEXT/UTF8
Codec ID/Info: UTF-8 Plain Text
Duration: 48 min 41 s
Bit rate: 63 b/s
Frame rate: 0.204 FPS
Count of elements: 597
Stream size: 22.8 KiB (0%)
Language: English
Default: No
Forced: No

Text #2
ID: 4
Format: UTF-8
Codec ID: S_TEXT/UTF8
Codec ID/Info: UTF-8 Plain Text
Duration: 48 min 41 s
Bit rate: 71 b/s
Frame rate: 0.230 FPS
Count of elements: 672
Stream size: 25.7 KiB (0%)
Title: SDH
Language: English
Default: No
Forced: No

Text #3
ID: 5
Format: UTF-8
Codec ID: S_TEXT/UTF8
Codec ID/Info: UTF-8 Plain Text
Duration: 49 min 49 s
Bit rate: 90 b/s
Frame rate: 0.207 FPS
Count of elements: 620
Stream size: 33.0 KiB (0%)
Language: Arabic
Default: No
Forced: No

Text #4
ID: 6
Format: UTF-8
Codec ID: S_TEXT/UTF8
Codec ID/Info: UTF-8 Plain Text
Duration: 49 min 49 s
Bit rate: 87 b/s
Frame rate: 0.176 FPS
Count of elements: 525
Stream size: 31.8 KiB (0%)
Language: Bulgarian
Default: No
Forced: No

Text #5
ID: 7
Format: UTF-8
Codec ID: S_TEXT/UTF8
Codec ID/Info: UTF-8 Plain Text
Duration: 49 min 49 s
Bit rate: 56 b/s
Frame rate: 0.208 FPS
Count of elements: 621
Stream size: 20.5 KiB (0%)
Title: Chinese (Simplified)
Language: Mandarin (Hans)
Default: No
Forced: No

Text #6
ID: 8
Format: UTF-8
Codec ID: S_TEXT/UTF8
Codec ID/Info: UTF-8 Plain Text
Duration: 49 min 49 s
Bit rate: 59 b/s
Frame rate: 0.208 FPS
Count of elements: 622
Stream size: 21.6 KiB (0%)
Title: Chinese (Traditional)
Language: Mandarin (Hant)
Default: No
Forced: No

Text #7
ID: 9
Format: UTF-8
Codec ID: S_TEXT/UTF8
Codec ID/Info: UTF-8 Plain Text
Duration: 49 min 49 s
Bit rate: 55 b/s
Frame rate: 0.194 FPS
Count of elements: 581
Stream size: 20.2 KiB (0%)
Language: Czech
Default: No
Forced: No

Text #8
ID: 10
Format: UTF-8
Codec ID: S_TEXT/UTF8
Codec ID/Info: UTF-8 Plain Text
Duration: 49 min 49 s
Bit rate: 61 b/s
Frame rate: 0.185 FPS
Count of elements: 552
Stream size: 22.3 KiB (0%)
Language: Danish
Default: No
Forced: No

Text #9
ID: 11
Format: UTF-8
Codec ID: S_TEXT/UTF8
Codec ID/Info: UTF-8 Plain Text
Duration: 49 min 51 s
Bit rate: 56 b/s
Frame rate: 0.206 FPS
Count of elements: 616
Stream size: 20.7 KiB (0%)
Language: German
Default: No
Forced: No

Text #10
ID: 12
Format: UTF-8
Codec ID: S_TEXT/UTF8
Codec ID/Info: UTF-8 Plain Text
Duration: 49 min 49 s
Bit rate: 101 b/s
Frame rate: 0.201 FPS
Count of elements: 601
Stream size: 37.2 KiB (0%)
Language: Greek
Default: No
Forced: No

Text #11
ID: 13
Format: UTF-8
Codec ID: S_TEXT/UTF8
Codec ID/Info: UTF-8 Plain Text
Duration: 49 min 49 s
Bit rate: 65 b/s
Frame rate: 0.210 FPS
Count of elements: 629
Stream size: 23.9 KiB (0%)
Title: Spanish (Latin America)
Language: Spanish (Latin America)
Default: No
Forced: No

Text #12
ID: 14
Format: UTF-8
Codec ID: S_TEXT/UTF8
Codec ID/Info: UTF-8 Plain Text
Duration: 49 min 49 s
Bit rate: 62 b/s
Frame rate: 0.209 FPS
Count of elements: 626
Stream size: 22.7 KiB (0%)
Title: Spanish (Spain)
Language: Spanish (ES)
Default: No
Forced: No

Text #13
ID: 15
Format: UTF-8
Codec ID: S_TEXT/UTF8
Codec ID/Info: UTF-8 Plain Text
Duration: 49 min 49 s
Bit rate: 58 b/s
Frame rate: 0.199 FPS
Count of elements: 596
Stream size: 21.2 KiB (0%)
Language: Estonian
Default: No
Forced: No

Text #14
ID: 16
Format: UTF-8
Codec ID: S_TEXT/UTF8
Codec ID/Info: UTF-8 Plain Text
Duration: 49 min 49 s
Bit rate: 54 b/s
Frame rate: 0.207 FPS
Count of elements: 618
Stream size: 19.9 KiB (0%)
Language: Finnish
Default: No
Forced: No

Text #15
ID: 17
Format: UTF-8
Codec ID: S_TEXT/UTF8
Codec ID/Info: UTF-8 Plain Text
Duration: 49 min 53 s
Bit rate: 58 b/s
Frame rate: 0.219 FPS
Count of elements: 657
Stream size: 21.4 KiB (0%)
Title: French (Canada)
Language: French (CA)
Default: No
Forced: No

Text #16
ID: 18
Format: UTF-8
Codec ID: S_TEXT/UTF8
Codec ID/Info: UTF-8 Plain Text
Duration: 49 min 53 s
Bit rate: 58 b/s
Frame rate: 0.219 FPS
Count of elements: 657
Stream size: 21.4 KiB (0%)
Title: French (France)
Language: French (FR)
Default: No
Forced: No

Text #17
ID: 19
Format: UTF-8
Codec ID: S_TEXT/UTF8
Codec ID/Info: UTF-8 Plain Text
Duration: 49 min 49 s
Bit rate: 91 b/s
Frame rate: 0.208 FPS
Count of elements: 621
Stream size: 33.3 KiB (0%)
Language: Hebrew
Default: No
Forced: No

Text #18
ID: 20
Format: UTF-8
Codec ID: S_TEXT/UTF8
Codec ID/Info: UTF-8 Plain Text
Duration: 49 min 49 s
Bit rate: 165 b/s
Frame rate: 0.208 FPS
Count of elements: 622
Stream size: 60.4 KiB (0%)
Language: Hindi
Default: No
Forced: No

Text #19
ID: 21
Format: UTF-8
Codec ID: S_TEXT/UTF8
Codec ID/Info: UTF-8 Plain Text
Duration: 49 min 49 s
Bit rate: 59 b/s
Frame rate: 0.206 FPS
Count of elements: 616
Stream size: 21.7 KiB (0%)
Language: Hungarian
Default: No
Forced: No

Text #20
ID: 22
Format: UTF-8
Codec ID: S_TEXT/UTF8
Codec ID/Info: UTF-8 Plain Text
Duration: 49 min 49 s
Bit rate: 64 b/s
Frame rate: 0.207 FPS
Count of elements: 619
Stream size: 23.6 KiB (0%)
Language: Indonesian
Default: No
Forced: No

Text #21
ID: 23
Format: UTF-8
Codec ID: S_TEXT/UTF8
Codec ID/Info: UTF-8 Plain Text
Duration: 49 min 11 s
Bit rate: 67 b/s
Frame rate: 0.212 FPS
Count of elements: 627
Stream size: 24.4 KiB (0%)
Language: Italian
Default: No
Forced: No

Text #22
ID: 24
Format: UTF-8
Codec ID: S_TEXT/UTF8
Codec ID/Info: UTF-8 Plain Text
Duration: 49 min 49 s
Bit rate: 51 b/s
Frame rate: 0.209 FPS
Count of elements: 626
Stream size: 18.8 KiB (0%)
Language: Japanese
Default: No
Forced: No

Text #23
ID: 25
Format: UTF-8
Codec ID: S_TEXT/UTF8
Codec ID/Info: UTF-8 Plain Text
Duration: 49 min 49 s
Bit rate: 73 b/s
Frame rate: 0.208 FPS
Count of elements: 621
Stream size: 26.7 KiB (0%)
Language: Korean
Default: No
Forced: No

Text #24
ID: 26
Format: UTF-8
Codec ID: S_TEXT/UTF8
Codec ID/Info: UTF-8 Plain Text
Duration: 49 min 49 s
Bit rate: 63 b/s
Frame rate: 0.207 FPS
Count of elements: 620
Stream size: 23.2 KiB (0%)
Language: Lithuanian
Default: No
Forced: No

Text #25
ID: 27
Format: UTF-8
Codec ID: S_TEXT/UTF8
Codec ID/Info: UTF-8 Plain Text
Duration: 49 min 49 s
Bit rate: 64 b/s
Frame rate: 0.202 FPS
Count of elements: 605
Stream size: 23.5 KiB (0%)
Language: Latvian
Default: No
Forced: No

Text #26
ID: 28
Format: UTF-8
Codec ID: S_TEXT/UTF8
Codec ID/Info: UTF-8 Plain Text
Duration: 49 min 49 s
Bit rate: 61 b/s
Frame rate: 0.206 FPS
Count of elements: 617
Stream size: 22.5 KiB (0%)
Language: Malay
Default: No
Forced: No

Text #27
ID: 29
Format: UTF-8
Codec ID: S_TEXT/UTF8
Codec ID/Info: UTF-8 Plain Text
Duration: 49 min 49 s
Bit rate: 56 b/s
Frame rate: 0.179 FPS
Count of elements: 534
Stream size: 20.4 KiB (0%)
Language: Dutch
Default: No
Forced: No

Text #28
ID: 30
Format: UTF-8
Codec ID: S_TEXT/UTF8
Codec ID/Info: UTF-8 Plain Text
Duration: 49 min 49 s
Bit rate: 52 b/s
Frame rate: 0.173 FPS
Count of elements: 516
Stream size: 19.0 KiB (0%)
Language: Norwegian
Default: No
Forced: No

Text #29
ID: 31
Format: UTF-8
Codec ID: S_TEXT/UTF8
Codec ID/Info: UTF-8 Plain Text
Duration: 49 min 49 s
Bit rate: 56 b/s
Frame rate: 0.198 FPS
Count of elements: 591
Stream size: 20.5 KiB (0%)
Language: Polish
Default: No
Forced: No

Text #30
ID: 32
Format: UTF-8
Codec ID: S_TEXT/UTF8
Codec ID/Info: UTF-8 Plain Text
Duration: 49 min 49 s
Bit rate: 63 b/s
Frame rate: 0.205 FPS
Count of elements: 613
Stream size: 23.1 KiB (0%)
Title: Portuguese
Language: Portuguese
Default: No
Forced: No

Text #31
ID: 33
Format: UTF-8
Codec ID: S_TEXT/UTF8
Codec ID/Info: UTF-8 Plain Text
Duration: 49 min 49 s
Bit rate: 57 b/s
Frame rate: 0.200 FPS
Count of elements: 598
Stream size: 20.8 KiB (0%)
Title: Portuguese (Brazil)
Language: Portuguese (BR)
Default: No
Forced: No

Text #32
ID: 34
Format: UTF-8
Codec ID: S_TEXT/UTF8
Codec ID/Info: UTF-8 Plain Text
Duration: 49 min 53 s
Bit rate: 95 b/s
Frame rate: 0.199 FPS
Count of elements: 596
Stream size: 35.0 KiB (0%)
Language: Russian
Default: No
Forced: No

Text #33
ID: 35
Format: UTF-8
Codec ID: S_TEXT/UTF8
Codec ID/Info: UTF-8 Plain Text
Duration: 49 min 49 s
Bit rate: 57 b/s
Frame rate: 0.206 FPS
Count of elements: 617
Stream size: 21.1 KiB (0%)
Language: Slovak
Default: No
Forced: No

Text #34
ID: 36
Format: UTF-8
Codec ID: S_TEXT/UTF8
Codec ID/Info: UTF-8 Plain Text
Duration: 49 min 49 s
Bit rate: 51 b/s
Frame rate: 0.192 FPS
Count of elements: 573
Stream size: 18.7 KiB (0%)
Language: Slovenian
Default: No
Forced: No

Text #35
ID: 37
Format: UTF-8
Codec ID: S_TEXT/UTF8
Codec ID/Info: UTF-8 Plain Text
Duration: 49 min 49 s
Bit rate: 61 b/s
Frame rate: 0.207 FPS
Count of elements: 618
Stream size: 22.5 KiB (0%)
Language: Swedish
Default: No
Forced: No

Text #36
ID: 38
Format: UTF-8
Codec ID: S_TEXT/UTF8
Codec ID/Info: UTF-8 Plain Text
Duration: 49 min 49 s
Bit rate: 199 b/s
Frame rate: 0.208 FPS
Count of elements: 621
Stream size: 72.9 KiB (0%)
Language: Tamil
Default: No
Forced: No

Text #37
ID: 39
Format: UTF-8
Codec ID: S_TEXT/UTF8
Codec ID/Info: UTF-8 Plain Text
Duration: 49 min 49 s
Bit rate: 185 b/s
Frame rate: 0.208 FPS
Count of elements: 621
Stream size: 67.7 KiB (0%)
Language: Telugu
Default: No
Forced: No

Text #38
ID: 40
Format: UTF-8
Codec ID: S_TEXT/UTF8
Codec ID/Info: UTF-8 Plain Text
Duration: 49 min 49 s
Bit rate: 165 b/s
Frame rate: 0.208 FPS
Count of elements: 621
Stream size: 60.3 KiB (0%)
Language: Thai
Default: No
Forced: No

Text #39
ID: 41
Format: UTF-8
Codec ID: S_TEXT/UTF8
Codec ID/Info: UTF-8 Plain Text
Duration: 49 min 49 s
Bit rate: 63 b/s
Frame rate: 0.202 FPS
Count of elements: 604
Stream size: 23.1 KiB (0%)
Language: Turkish
Default: No
Forced: No

Text #40
ID: 42
Format: UTF-8
Codec ID: S_TEXT/UTF8
Codec ID/Info: UTF-8 Plain Text
Duration: 49 min 49 s
Bit rate: 92 b/s
Frame rate: 0.208 FPS
Count of elements: 621
Stream size: 33.7 KiB (0%)
Language: Ukrainian
Default: No
Forced: No

Text #41
ID: 43
Format: UTF-8
Codec ID: S_TEXT/UTF8
Codec ID/Info: UTF-8 Plain Text
Duration: 49 min 49 s
Bit rate: 81 b/s
Frame rate: 0.207 FPS
Count of elements: 618
Stream size: 29.6 KiB (0%)
Language: Vietnamese
Default: No
Forced: No

Text #42
ID: 44
Format: UTF-8
Codec ID: S_TEXT/UTF8
Codec ID/Info: UTF-8 Plain Text
Duration: 49 min 49 s
Bit rate: 56 b/s
Frame rate: 0.208 FPS
Count of elements: 622
Stream size: 20.5 KiB (0%)
Title: Cantonese (Traditional)
Language: Cantonese (Hant)
Default: No
Forced: No

Menu
00:00:00.000: en:Chapter 1
00:02:25.750: en:Intro
00:03:42.708: en:Chapter 2
ssl  EZTV RSS EZTV Status | EZTV API | DMCA: [email protected]