eztv.wf | eztvstatus.org
Search title:  
TV Packs only
 

Clone High 2023 S01E03 Anxious Times at Clone High 1080p MAX WEB-DL DDP5 1 H 264-NTb EZTV

Episode Breakdown
Clone High
Clone High TV Show S01E03

Season: 1
Episode: 3
Air Date: 1 June, 2023
Download Links
     Torrent Download     Magnet Download
     Anonymous Download
Added 11 months ago by eztv (verified).
Tracker Statistics
Seeds: 6
Peers: 1
Stats generated @ 16:20 on 29th May 2024
Torrent Info
Torrent File: Clone.High.2023.S01E03.Anxious.Times.at.Clone.High.1080p.MAX.WEB-DL.DDP5.1.H.264-NTb[eztv.re].mkv
Torrent Hash: 3207909E40C7BEB433284E6431D7590C2F24633C
Filesize: 1.64 GB
Released: 2nd Jun 2023

File Format: MKV (Matroska)
Resolution: 1920x1080 px
Aspect Ratio: 16:9
Alternate Releases S L
Clone High 2023 S01E03 720p WEB h264-ETHEL 1 0
Clone High 2023 S01E03 1080p WEB h264-ETHEL 3 0
Clone High 2023 S01E03 1080p HEVC x265-MeGusta 0 1
Clone High 2023 S01E03 XviD-AFG 0 0
Clone High 2023 S01E03 480p x264-mSD 0 0

Clone High S01E03 - Anxious Times at Clone High

Summary:

As Candide's manufactured crisis wreaks havoc, Joan begins to doubt her relationship with JFK, Abe turns to Frida for advice, and Harriet frets over a future as a #winemom.



Clone High 2023 S01E03 Anxious Times at Clone High 1080p MAX WEB-DL DDP5 1 H 264-NTb EZTV
Clone High S1E3 Screenshot


General
Unique ID: 332038156401593460930815718035799428768 (0xF9CC390A07B0161DBDB65441CA7C4EA0)
Complete name: Clone.High.2023.S01E03.Anxious.Times.at.Clone.High.1080p.MAX.WEB-DL.DDP5.1.H.264-NTb.mkv
Format: Matroska
Format version: Version 4
File size: 1.64 GiB
Duration: 24 min 4 s
Overall bit rate mode: Variable
Overall bit rate: 9 755 kb/s
Writing application: mkvmerge v75.0.0 ('Goliath') 64-bit
Writing library: libebml v1.4.4 + libmatroska v1.7.1

Video
ID: 1
Format: AVC
Format/Info: Advanced Video Codec
Format profile: [email protected]
Format settings: CABAC / 4 Ref Frames
Format settings, CABAC: Yes
Format settings, Reference frames: 4 frames
Codec ID: V_MPEG4/ISO/AVC
Duration: 24 min 4 s
Bit rate mode: Variable
Bit rate: 9 496 kb/s
Maximum bit rate: 10 000 kb/s
Width: 1 920 pixels
Height: 1 080 pixels
Display aspect ratio: 16:9
Frame rate mode: Constant
Frame rate: 23.976 (24000/1001) FPS
Color space: YUV
Chroma subsampling: 4:2:0
Bit depth: 8 bits
Scan type: Progressive
Bits/(Pixel*Frame): 0.191
Stream size: 1.60 GiB (97%)
Writing library: x264 core 164
Encoding settings: cabac=1 / ref=4 / deblock=1:0:0 / analyse=0x3:0x133 / me=umh / subme=10 / psy=1 / psy_rd=1.00:0.00 / mixed_ref=1 / me_range=24 / chroma_me=1 / trellis=2 / 8x8dct=1 / cqm=0 / deadzone=21,11 / fast_pskip=1 / chroma_qp_offset=-2 / threads=34 / lookahead_threads=2 / sliced_threads=0 / nr=0 / decimate=1 / interlaced=0 / bluray_compat=0 / stitchable=1 / constrained_intra=0 / bframes=3 / b_pyramid=2 / b_adapt=2 / b_bias=0 / direct=3 / weightb=1 / open_gop=0 / weightp=2 / keyint=96 / keyint_min=49 / scenecut=0 / intra_refresh=0 / rc_lookahead=96 / rc=crf / mbtree=1 / crf=20.0 / qcomp=0.60 / qpmin=0 / qpmax=69 / qpstep=4 / vbv_maxrate=10000 / vbv_bufsize=40000 / crf_max=0.0 / nal_hrd=vbr / filler=0 / ip_ratio=1.40 / aq=1:1.00
Default: Yes
Forced: No
Color range: Limited
Color primaries: BT.709
Transfer characteristics: BT.709
Matrix coefficients: BT.709

Audio
ID: 2
Format: E-AC-3
Format/Info: Enhanced AC-3
Commercial name: Dolby Digital Plus
Codec ID: A_EAC3
Duration: 24 min 4 s
Bit rate mode: Constant
Bit rate: 256 kb/s
Channel(s): 6 channels
Channel layout: L R C LFE Ls Rs
Sampling rate: 48.0 kHz
Frame rate: 31.250 FPS (1536 SPF)
Compression mode: Lossy
Stream size: 44.1 MiB (3%)
Language: English (US)
Service kind: Complete Main
Default: Yes
Forced: No

Text #1
ID: 3
Format: UTF-8
Codec ID: S_TEXT/UTF8
Codec ID/Info: UTF-8 Plain Text
Duration: 23 min 54 s
Bit rate: 100 b/s
Frame rate: 0.344 FPS
Count of elements: 493
Stream size: 17.6 KiB (0%)
Language: English (US)
Default: No
Forced: No

Text #2
ID: 4
Format: UTF-8
Codec ID: S_TEXT/UTF8
Codec ID/Info: UTF-8 Plain Text
Duration: 23 min 54 s
Bit rate: 115 b/s
Frame rate: 0.381 FPS
Count of elements: 547
Stream size: 20.2 KiB (0%)
Title: SDH
Language: English (US)
Default: No
Forced: No

Text #3
ID: 5
Format: UTF-8
Codec ID: S_TEXT/UTF8
Codec ID/Info: UTF-8 Plain Text
Duration: 22 min 56 s
Bit rate: 96 b/s
Frame rate: 0.347 FPS
Count of elements: 478
Stream size: 16.3 KiB (0%)
Language: Spanish (Latin America)
Default: No
Forced: No

Text #4
ID: 6
Format: UTF-8
Codec ID: S_TEXT/UTF8
Codec ID/Info: UTF-8 Plain Text
Duration: 22 min 56 s
Bit rate: 106 b/s
Frame rate: 0.347 FPS
Count of elements: 477
Stream size: 17.8 KiB (0%)
Language: Portuguese (BR)
Default: No
Forced: No

Menu
00:00:00.000: en:Recap / en:Chapter 2
00:00:26.317: en:Chapter 1
00:00:26.359: en:Intro
00:01:14.867: en:Chapter 3
00:09:36.993: en:Chapter 4
00:16:44.378: en:Chapter 5
00:23:04.883: en:Credits
ssl  EZTV RSS EZTV Status | EZTV API | DMCA: [email protected]