eztv.wf | eztvstatus.org
Search title:  
TV Packs only
 

Steve Bannon War Room Battleground 2023 06 09 720p WebDL h264-DJT EZTV

Episode Breakdown
War Room: Battleground
War Room: Battleground TV Show

Air Date: 2 June, 2023
Download Links
     Torrent Download     Magnet Download
     Anonymous Download
Added 1 year ago by eztv (verified).
Tracker Statistics
Seeds: 0
Peers: 0
Stats generated @ 18:26 on 25th Jul 2024
Torrent Info
Torrent File: Steve.Bannon.War.Room.Battleground.2023.06.09.720p.WebDL.h264-DJT[eztv.re].mp4
Torrent Hash: 416AF06AC55AC1012E84B9779668E27C7CC08187
Filesize: 699 MB
Released: 10th Jun 2023

File Format: MP4 (MPEG-4)
Resolution: 1280x720 px
Aspect Ratio: 16:9
Alternate Releases S L
Steve Bannon War Room Battleground - 2023 06 02 720p WebDL h264-DJT 1 0
Steve Bannon War Room - 2023 06 02 Hour 3 720p WebDL h264-DJT 1 0
Steve Bannon War Room - 2023 06 02 Hour 2 720p WebDL h264-DJT 0 0
Steve Bannon War Room - 2023 06 02 Hour 1 720p WebDL h264-DJT 0 1
Steve Bannon War Room - 2023 06 03 Hour 1 720p WebDL h264-DJT 0 0
Steve Bannon War Room - 2023 06 03 Hour 2 720p WebDL h264-DJT 0 0
Steve Bannon War Room - 2023 06 05 Hour 3 720p WebDL h264-DJT 0 0

Episode Description
Steve Bannon War Room Battleground 2023 06 09 720p WebDL h264-DJT EZTV
War Room: Battleground Screenshot


General
Complete name: Steve.Bannon.War.Room.Battleground.2023.06.09.720p.WebDL.h264-DJT.mp4
Format: MPEG-4
Format profile: Base Media / Version 2
Codec ID: mp42 (mp42/dby1/iso2/avc1/mp41)
File size: 699 MiB
Duration: 48 min 48 s
Overall bit rate: 2 002 kb/s
Movie name: Steve Bannon War Room Battleground 2023.06.09 720p WebDL h264-DJT
Encoded date: UTC 2023-06-10 12:51:13
Tagged date: UTC 2023-06-10 12:51:13
Writing application: HandBrake 1.6.1 2023012300

Video
ID: 1
Format: AVC
Format/Info: Advanced Video Codec
Format profile: [email protected]
Format settings: CABAC / 5 Ref Frames
Format settings, CABAC: Yes
Format settings, Reference frames: 5 frames
Codec ID: avc1
Codec ID/Info: Advanced Video Coding
Duration: 48 min 48 s
Source duration: 48 min 48 s
Bit rate: 1 322 kb/s
Width: 1 280 pixels
Height: 720 pixels
Display aspect ratio: 16:9
Original display aspect ratio: 16:9
Frame rate mode: Variable
Frame rate: 30.000 FPS
Minimum frame rate: 15.152 FPS
Maximum frame rate: 30.000 FPS
Color space: YUV
Chroma subsampling: 4:2:0
Bit depth: 8 bits
Scan type: Progressive
Bits/(Pixel*Frame): 0.048
Stream size: 461 MiB (66%)
Source stream size: 461 MiB (66%)
Writing library: x264 core 164 r3100 ed0f7a6
Encoding settings: cabac=1 / ref=5 / deblock=1:0:0 / analyse=0x3:0x113 / me=hex / subme=8 / psy=1 / psy_rd=1.00:0.00 / mixed_ref=1 / me_range=16 / chroma_me=1 / trellis=2 / 8x8dct=1 / cqm=0 / deadzone=21,11 / fast_pskip=1 / chroma_qp_offset=-2 / threads=12 / lookahead_threads=2 / sliced_threads=0 / nr=0 / decimate=1 / interlaced=0 / bluray_compat=0 / constrained_intra=0 / bframes=3 / b_pyramid=2 / b_adapt=1 / b_bias=0 / direct=3 / weightb=1 / open_gop=0 / weightp=2 / keyint=300 / keyint_min=30 / scenecut=40 / intra_refresh=0 / rc_lookahead=50 / rc=crf / mbtree=1 / crf=19.0 / qcomp=0.60 / qpmin=0 / qpmax=69 / qpstep=4 / vbv_maxrate=17500 / vbv_bufsize=17500 / crf_max=0.0 / nal_hrd=none / filler=0 / ip_ratio=1.40 / aq=1:1.00
Encoded date: UTC 2023-06-10 12:51:13
Tagged date: UTC 2023-06-10 12:51:13
Color range: Limited
Color primaries: BT.709
Transfer characteristics: BT.709
Matrix coefficients: BT.709
mdhd_Duration: 2928533
Codec configuration box: avcC

Audio #1
ID: 2
Format: AAC LC
Format/Info: Advanced Audio Codec Low Complexity
Codec ID: mp4a-40-2
Duration: 48 min 48 s
Source duration: 48 min 48 s
Bit rate mode: Constant
Bit rate: 159 kb/s
Channel(s): 2 channels
Channel layout: L R
Sampling rate: 48.0 kHz
Frame rate: 46.875 FPS (1024 SPF)
Compression mode: Lossy
Stream size: 55.6 MiB (8%)
Source stream size: 55.6 MiB (8%)
Title: Stereo
Default: Yes
Alternate group: 1
Encoded date: UTC 2023-06-10 12:51:13
Tagged date: UTC 2023-06-10 12:51:13
Fallback From: 3

Audio #2
ID: 3
Format: AC-3
Format/Info: Audio Coding 3
Commercial name: Dolby Digital
Codec ID: ac-3
Duration: 48 min 48 s
Source duration: 48 min 48 s
Bit rate mode: Constant
Bit rate: 512 kb/s
Channel(s): 2 channels
Channel layout: L R
Sampling rate: 48.0 kHz
Frame rate: 31.250 FPS (1536 SPF)
Compression mode: Lossy
Stream size: 179 MiB (26%)
Source stream size: 179 MiB (26%)
Title: Stereo
Service kind: Complete Main
Default: Inherited From: 2
Alternate group: 1
Encoded date: UTC 2023-06-10 12:51:13
Tagged date: UTC 2023-06-10 12:51:13
Fallback To: 2
ssl  EZTV RSS EZTV Status | EZTV API | DMCA: [email protected]