eztv.wf | eztvstatus.org
Search title:  
TV Packs only
 

Animals at Play S01E01 The Power of Play 720p AMZN WEB-DL DDP2 0 H 264-NTb EZTV

Episode Breakdown
Animals at Play
Animals at Play TV Show S01E01

Season: 1
Episode: 1
Air Date: 28 July, 2019
Download Links
     Torrent Download     Magnet Download
     Anonymous Download
Added 10 months ago by eztv (verified).
Tracker Statistics
Seeds: 0
Peers: 0
Stats generated @ 00:39 on 21st Apr 2024
Torrent Info
Torrent File: Animals.at.Play.S01E01.The.Power.of.Play.720p.AMZN.WEB-DL.DDP2.0.H.264-NTb[eztv.re].mkv
Torrent Hash: 7EA7E8A960AD07F97AFD9965185DC9AFEEBBCB0C
Filesize: 1.41 GB
Released: 13th Jun 2023

File Format: MKV (Matroska)
Resolution: 1280x720 px
Aspect Ratio: 16:9
Alternate Releases S L
Animals at Play S01E01 The Power of Play 1080p AMZN WEB-DL DDP2 0 H 264-NTb 1 0
Animals at Play S01E02 Playing Together 1080p AMZN WEB-DL DDP2 0 H 264-NTb 1 0
Animals at Play S01E02 Playing Together 720p AMZN WEB-DL DDP2 0 H 264-NTb 0 0

Animals at Play S01E01 - The Power of Play

Summary:

The reasons why young animals enjoy playing, and how it can teach them to survive in the wild. The programme explores how young elephants, which rarely leave their mothers' side for the first eight years of life, play to develop social skills, while macaques hone their mental agility by playing games with stones. Plus, a zoologist who looks after orphaned cheetahs reveals how play can help cubs learn to hunt.



Animals at Play S01E01 The Power of Play 720p AMZN WEB-DL DDP2 0 H 264-NTb EZTV
Animals at Play S1E1 Screenshot


General
Unique ID: 121316613157129964968478843252187794915 (0x5B44BAD4602D760995468FBD8B5F0DE3)
Complete name: Animals.at.Play.S01E01.The.Power.of.Play.720p.AMZN.WEB-DL.DDP2.0.H.264-NTb.mkv
Format: Matroska
Format version: Version 4
File size: 1.41 GiB
Duration: 50 min 4 s
Overall bit rate: 4 032 kb/s
Writing application: mkvmerge v75.0.0 ('Goliath') 64-bit
Writing library: libebml v1.4.4 + libmatroska v1.7.1

Video
ID: 1
Format: AVC
Format/Info: Advanced Video Codec
Format profile: [email protected]
Format settings: CABAC / 4 Ref Frames
Format settings, CABAC: Yes
Format settings, Reference frames: 4 frames
Codec ID: V_MPEG4/ISO/AVC
Duration: 50 min 4 s
Bit rate mode: Constant
Bit rate: 3 806 kb/s
Nominal bit rate: 4 000 kb/s
Width: 1 280 pixels
Height: 720 pixels
Display aspect ratio: 16:9
Frame rate mode: Constant
Frame rate: 23.976 (24000/1001) FPS
Color space: YUV
Chroma subsampling: 4:2:0
Bit depth: 8 bits
Scan type: Progressive
Bits/(Pixel*Frame): 0.172
Stream size: 1.33 GiB (94%)
Default: Yes
Forced: No
Color range: Limited
Color primaries: BT.709
Transfer characteristics: BT.709
Matrix coefficients: BT.709

Audio
ID: 2
Format: E-AC-3
Format/Info: Enhanced AC-3
Commercial name: Dolby Digital Plus
Codec ID: A_EAC3
Duration: 50 min 4 s
Bit rate mode: Constant
Bit rate: 224 kb/s
Channel(s): 2 channels
Channel layout: L R
Sampling rate: 48.0 kHz
Frame rate: 31.250 FPS (1536 SPF)
Compression mode: Lossy
Stream size: 80.2 MiB (6%)
Language: English (CA)
Service kind: Complete Main
Default: Yes
Forced: No

Text #1
ID: 3
Format: UTF-8
Codec ID: S_TEXT/UTF8
Codec ID/Info: UTF-8 Plain Text
Duration: 49 min 36 s
Bit rate: 70 b/s
Frame rate: 0.223 FPS
Count of elements: 664
Stream size: 25.7 KiB (0%)
Language: English (US)
Default: No
Forced: No

Text #2
ID: 4
Format: UTF-8
Codec ID: S_TEXT/UTF8
Codec ID/Info: UTF-8 Plain Text
Duration: 49 min 39 s
Bit rate: 74 b/s
Frame rate: 0.237 FPS
Count of elements: 705
Stream size: 27.0 KiB (0%)
Title: SDH
Language: English (US)
Default: No
Forced: No
ssl  EZTV RSS EZTV Status | EZTV API | DMCA: [email protected]