eztv.wf | eztvstatus.org
Search title:  
TV Packs only
 

Battle of the Alphas S02E01 Weatherproof 1080p AMZN WEB-DL DDP2 0 H 264-NTb EZTV

Episode Breakdown
Battle of the Coral Sea
Battle of the Coral Sea TV Show S02E01

Season: 2
Episode: 1
Download Links
     Torrent Download     Magnet Download
     Anonymous Download
Added 1 year ago by eztv (verified).
Tracker Statistics
Seeds: 0
Peers: 0
Stats generated @ 23:21 on 15th Jun 2024
Torrent Info
Torrent File: Battle.of.the.Alphas.S02E01.Weatherproof.1080p.AMZN.WEB-DL.DDP2.0.H.264-NTb[eztv.re].mkv
Torrent Hash: ADA02DE9F1D0BE35AC588B4660523333A7F1F462
Filesize: 1.60 GB
Released: 14th Jun 2023

File Format: MKV (Matroska)
Resolution: 1920x1080 px
Aspect Ratio: 16:9

Episode Description
Battle of the Alphas S02E01 Weatherproof 1080p AMZN WEB-DL DDP2 0 H 264-NTb EZTV
Battle of the Coral Sea S2E1 Screenshot


General
Unique ID: 218971652867985662498771858877608541308 (0xA4BC6804C97151CEC4CD7877CBDEBC7C)
Complete name: Battle.of.the.Alphas.S02E01.Weatherproof.1080p.AMZN.WEB-DL.DDP2.0.H.264-NTb.mkv
Format: Matroska
Format version: Version 4
File size: 1.60 GiB
Duration: 25 min 4 s
Overall bit rate: 9 162 kb/s
Writing application: mkvmerge v75.0.0 ('Goliath') 64-bit
Writing library: libebml v1.4.4 + libmatroska v1.7.1

Video
ID: 1
Format: AVC
Format/Info: Advanced Video Codec
Format profile: High@L4
Format settings: CABAC / 4 Ref Frames
Format settings, CABAC: Yes
Format settings, Reference frames: 4 frames
Codec ID: V_MPEG4/ISO/AVC
Duration: 25 min 4 s
Bit rate mode: Constant
Bit rate: 8 935 kb/s
Nominal bit rate: 10 000 kb/s
Width: 1 920 pixels
Height: 1 080 pixels
Display aspect ratio: 16:9
Frame rate mode: Constant
Frame rate: 23.976 (24000/1001) FPS
Color space: YUV
Chroma subsampling: 4:2:0
Bit depth: 8 bits
Scan type: Progressive
Bits/(Pixel*Frame): 0.180
Stream size: 1.56 GiB (98%)
Default: Yes
Forced: No
Color range: Limited
Color primaries: BT.709
Transfer characteristics: BT.709
Matrix coefficients: BT.709

Audio
ID: 2
Format: E-AC-3
Format/Info: Enhanced AC-3
Commercial name: Dolby Digital Plus
Codec ID: A_EAC3
Duration: 25 min 4 s
Bit rate mode: Constant
Bit rate: 224 kb/s
Channel(s): 2 channels
Channel layout: L R
Sampling rate: 48.0 kHz
Frame rate: 31.250 FPS (1536 SPF)
Compression mode: Lossy
Stream size: 40.2 MiB (2%)
Language: English (CA)
Service kind: Complete Main
Default: Yes
Forced: No

Text #1
ID: 3
Format: UTF-8
Codec ID: S_TEXT/UTF8
Codec ID/Info: UTF-8 Plain Text
Duration: 24 min 49 s
Bit rate: 112 b/s
Frame rate: 0.324 FPS
Count of elements: 482
Stream size: 20.5 KiB (0%)
Language: English (US)
Default: No
Forced: No

Text #2
ID: 4
Format: UTF-8
Codec ID: S_TEXT/UTF8
Codec ID/Info: UTF-8 Plain Text
Duration: 24 min 49 s
Bit rate: 116 b/s
Frame rate: 0.328 FPS
Count of elements: 488
Stream size: 21.2 KiB (0%)
Title: SDH
Language: English (US)
Default: No
Forced: No
ssl  EZTV RSS EZTV Status | EZTV API | DMCA: [email protected]