eztv.wf | eztvstatus.org
Search title:  
TV Packs only
 

Steve Bannon War Room 2023 06 14 Hour 1 720p WebDL h264-DJT EZTV

Episode Breakdown
War Room: Battleground
War Room: Battleground TV Show

Air Date: 2 June, 2023
Download Links
     Torrent Download     Magnet Download
     Anonymous Download
Added 5 months ago by eztv (verified).
Tracker Statistics
Seeds: 0
Peers: 0
Stats generated @ 11:03 on 3rd Dec 2023
Torrent Info
Torrent File: Steve.Bannon.War.Room.2023.06.14.Hour.1.720p.WebDL.h264-DJT[eztv.re].mp4
Torrent Hash: FDCB09A761462EC9C488414EE0A2E2F9AEDB202A
Filesize: 726 MB
Released: 15th Jun 2023

File Format: MP4 (MPEG-4)
Resolution: 1280x720 px
Aspect Ratio: 16:9
Alternate Releases S L
Steve Bannon War Room Battleground - 2023 06 02 720p WebDL h264-DJT 0 0
Steve Bannon War Room - 2023 06 02 Hour 3 720p WebDL h264-DJT 0 0
Steve Bannon War Room - 2023 06 02 Hour 2 720p WebDL h264-DJT 0 0
Steve Bannon War Room - 2023 06 02 Hour 1 720p WebDL h264-DJT 0 0
Steve Bannon War Room - 2023 06 03 Hour 1 720p WebDL h264-DJT 0 0
Steve Bannon War Room - 2023 06 03 Hour 2 720p WebDL h264-DJT 0 1
Steve Bannon War Room - 2023 06 05 Hour 3 720p WebDL h264-DJT 0 1

Episode Description
Steve Bannon War Room 2023 06 14 Hour 1 720p WebDL h264-DJT EZTV
War Room: Battleground Screenshot


General
Complete name: Steve.Bannon.War.Room.2023.06.14.Hour.1.720p.WebDL.h264-DJT.mp4
Format: MPEG-4
Format profile: Base Media
Codec ID: isom (isom/iso2/avc1/mp41)
File size: 726 MiB
Duration: 48 min 56 s
Overall bit rate: 2 073 kb/s
Movie name: Steve Bannon War Room 2023.06.14 Hour 1 720p WebDL h264-DJT
Encoded date: UTC 2023-06-15 05:00:00
Writing application: Lavf58.29.100

Video
ID: 1
Format: AVC
Format/Info: Advanced Video Codec
Format profile: [email protected]
Format settings: CABAC / 5 Ref Frames
Format settings, CABAC: Yes
Format settings, Reference frames: 5 frames
Codec ID: avc1
Codec ID/Info: Advanced Video Coding
Duration: 48 min 56 s
Bit rate: 1 900 kb/s
Width: 1 280 pixels
Height: 720 pixels
Display aspect ratio: 16:9
Frame rate mode: Variable
Frame rate: 59.940 (60000/1001) FPS
Minimum frame rate: 59.920 FPS
Maximum frame rate: 59.960 FPS
Color space: YUV
Chroma subsampling: 4:2:0
Bit depth: 8 bits
Scan type: Progressive
Bits/(Pixel*Frame): 0.034
Stream size: 664 MiB (91%)
Writing library: x264 core 164
Encoding settings: cabac=1 / ref=5 / deblock=1:0:0 / analyse=0x3:0x113 / me=hex / subme=7 / psy=1 / psy_rd=1.00:0.00 / mixed_ref=1 / me_range=16 / chroma_me=1 / trellis=2 / 8x8dct=1 / cqm=0 / deadzone=21,11 / fast_pskip=1 / chroma_qp_offset=-2 / threads=16 / lookahead_threads=2 / sliced_threads=0 / nr=0 / decimate=1 / interlaced=0 / bluray_compat=0 / constrained_intra=0 / bframes=3 / b_pyramid=2 / b_adapt=1 / b_bias=0 / direct=3 / weightb=1 / open_gop=0 / weightp=2 / keyint=120 / keyint_min=25 / scenecut=40 / intra_refresh=0 / rc_lookahead=50 / rc=2pass / mbtree=1 / bitrate=1900 / ratetol=1.0 / qcomp=0.60 / qpmin=0 / qpmax=69 / qpstep=4 / cplxblur=20.0 / qblur=0.5 / vbv_maxrate=2850 / vbv_bufsize=7200 / nal_hrd=none / filler=0 / ip_ratio=1.41 / aq=1:1.00
Codec configuration box: avcC

Audio
ID: 2
Format: AAC LC
Format/Info: Advanced Audio Codec Low Complexity
Codec ID: mp4a-40-2
Duration: 48 min 56 s
Bit rate mode: Constant
Bit rate: 160 kb/s
Channel(s): 2 channels
Channel layout: L R
Sampling rate: 48.0 kHz
Frame rate: 46.875 FPS (1024 SPF)
Compression mode: Lossy
Stream size: 56.0 MiB (8%)
Default: Yes
Alternate group: 1
ssl  EZTV RSS EZTV Status | EZTV API | DMCA: [email protected]