eztv.wf | eztvstatus.org
Search title:  
TV Packs only
 

Clone High 2023 S01E07 Spring Broken 1080p MAX WEB-DL DDP5 1 H 264-NTb EZTV

Episode Breakdown
Clone High
Clone High TV Show S01E07

Season: 1
Episode: 7
Air Date: 15 June, 2023
Download Links
     Torrent Download     Magnet Download
     Anonymous Download
Added 11 months ago by eztv (verified).
Tracker Statistics
Seeds: 10
Peers: 2
Stats generated @ 17:50 on 29th May 2024
Torrent Info
Torrent File: Clone.High.2023.S01E07.Spring.Broken.1080p.MAX.WEB-DL.DDP5.1.H.264-NTb[eztv.re].mkv
Torrent Hash: BF3FBBBB20B67FCFDD279482119D0EA6432F72CE
Filesize: 1.72 GB
Released: 17th Jun 2023

File Format: MKV (Matroska)
Resolution: 1920x1080 px
Aspect Ratio: 16:9
Alternate Releases S L
Clone High 2023 S01E07 1080p WEB h264-EDITH 0 2
Clone High 2023 S01E07 480p x264-mSD 0 3
Clone High 2023 S01E07 720p HEVC x265-MeGusta 0 2
Clone High 2023 S01E07 XviD-AFG 0 0
Clone High 2023 S01E07 1080p HEVC x265-MeGusta 2 1
Clone High 2023 S01E07 720p WEB h264-EDITH 1 0

Clone High S01E07 - Spring Broken

Summary:

After the clones find themselves stranded in the desert, JFK experiences a heat-induced intellectual breakthrough, Abe faces a zombie horde, and Scudworth and Mr. B hit the big-time in Vegas.



Clone High 2023 S01E07 Spring Broken 1080p MAX WEB-DL DDP5 1 H 264-NTb EZTV
Clone High S1E7 Screenshot


General
Unique ID: 1535449384877124322443324867827336955 (0x127B77FDDE6D449672789AB813A06FB)
Complete name: Clone.High.2023.S01E07.Spring.Broken.1080p.MAX.WEB-DL.DDP5.1.H.264-NTb.mkv
Format: Matroska
Format version: Version 4
File size: 1.72 GiB
Duration: 25 min 20 s
Overall bit rate mode: Variable
Overall bit rate: 9 694 kb/s
Writing application: mkvmerge v75.0.0 ('Goliath') 64-bit
Writing library: libebml v1.4.4 + libmatroska v1.7.1

Video
ID: 1
Format: AVC
Format/Info: Advanced Video Codec
Format profile: [email protected]
Format settings: CABAC / 4 Ref Frames
Format settings, CABAC: Yes
Format settings, Reference frames: 4 frames
Codec ID: V_MPEG4/ISO/AVC
Duration: 25 min 20 s
Bit rate mode: Variable
Bit rate: 9 436 kb/s
Maximum bit rate: 10 000 kb/s
Width: 1 920 pixels
Height: 1 080 pixels
Display aspect ratio: 16:9
Frame rate mode: Constant
Frame rate: 23.976 (24000/1001) FPS
Color space: YUV
Chroma subsampling: 4:2:0
Bit depth: 8 bits
Scan type: Progressive
Bits/(Pixel*Frame): 0.190
Stream size: 1.67 GiB (97%)
Writing library: x264 core 164
Encoding settings: cabac=1 / ref=4 / deblock=1:0:0 / analyse=0x3:0x133 / me=umh / subme=10 / psy=1 / psy_rd=1.00:0.00 / mixed_ref=1 / me_range=24 / chroma_me=1 / trellis=2 / 8x8dct=1 / cqm=0 / deadzone=21,11 / fast_pskip=1 / chroma_qp_offset=-2 / threads=34 / lookahead_threads=2 / sliced_threads=0 / nr=0 / decimate=1 / interlaced=0 / bluray_compat=0 / stitchable=1 / constrained_intra=0 / bframes=3 / b_pyramid=2 / b_adapt=2 / b_bias=0 / direct=3 / weightb=1 / open_gop=0 / weightp=2 / keyint=96 / keyint_min=49 / scenecut=0 / intra_refresh=0 / rc_lookahead=96 / rc=crf / mbtree=1 / crf=20.0 / qcomp=0.60 / qpmin=0 / qpmax=69 / qpstep=4 / vbv_maxrate=10000 / vbv_bufsize=40000 / crf_max=0.0 / nal_hrd=vbr / filler=0 / ip_ratio=1.40 / aq=1:1.00
Default: Yes
Forced: No
Color range: Limited
Color primaries: BT.709
Transfer characteristics: BT.709
Matrix coefficients: BT.709

Audio
ID: 2
Format: E-AC-3
Format/Info: Enhanced AC-3
Commercial name: Dolby Digital Plus
Codec ID: A_EAC3
Duration: 25 min 20 s
Bit rate mode: Constant
Bit rate: 256 kb/s
Channel(s): 6 channels
Channel layout: L R C LFE Ls Rs
Sampling rate: 48.0 kHz
Frame rate: 31.250 FPS (1536 SPF)
Compression mode: Lossy
Stream size: 46.4 MiB (3%)
Language: English (US)
Service kind: Complete Main
Default: Yes
Forced: No

Text #1
ID: 3
Format: UTF-8
Codec ID: S_TEXT/UTF8
Codec ID/Info: UTF-8 Plain Text
Duration: 25 min 10 s
Bit rate: 91 b/s
Frame rate: 0.314 FPS
Count of elements: 475
Stream size: 16.8 KiB (0%)
Language: English (US)
Default: No
Forced: No

Text #2
ID: 4
Format: UTF-8
Codec ID: S_TEXT/UTF8
Codec ID/Info: UTF-8 Plain Text
Duration: 25 min 10 s
Bit rate: 103 b/s
Frame rate: 0.350 FPS
Count of elements: 529
Stream size: 19.2 KiB (0%)
Title: SDH
Language: English (US)
Default: No
Forced: No

Text #3
ID: 5
Format: UTF-8
Codec ID: S_TEXT/UTF8
Codec ID/Info: UTF-8 Plain Text
Duration: 25 min 7 s
Bit rate: 87 b/s
Frame rate: 0.317 FPS
Count of elements: 478
Stream size: 16.1 KiB (0%)
Language: Spanish (Latin America)
Default: No
Forced: No

Text #4
ID: 6
Format: UTF-8
Codec ID: S_TEXT/UTF8
Codec ID/Info: UTF-8 Plain Text
Duration: 25 min 7 s
Bit rate: 91 b/s
Frame rate: 0.315 FPS
Count of elements: 475
Stream size: 16.8 KiB (0%)
Language: Portuguese (BR)
Default: No
Forced: No

Menu
00:00:00.000: en:Recap / en:Chapter 2
00:00:27.652: en:Chapter 1
00:03:00.680: en:Intro
00:03:48.437: en:Chapter 3
00:09:07.088: en:Chapter 4
00:17:06.108: en:Chapter 5
00:24:20.792: en:Credits
ssl  EZTV RSS EZTV Status | EZTV API | DMCA: [email protected]