eztv.wf | eztvstatus.org
Search title:  
TV Packs only
 

Gardeners World S56E13 Episode 13 720p WEB-DL x264-NGP EZTV

Episode Breakdown
Gardeners' World
Gardeners' World TV Show S56E13

Season: 56
Episode: 13
Air Date: 16 June, 2023
Download Links
     Torrent Download     Magnet Download
     Anonymous Download
Added 11 months ago by eztv (verified).
Tracker Statistics
Seeds: 0
Peers: 3
Stats generated @ 23:01 on 15th Jun 2024
Torrent Info
Torrent File: Gardeners.World.S56E13.Episode.13.720p.WEB-DL.x264-NGP[eztv.re].mp4
Torrent Hash: F0077032C3F7F6957070230B63B808CCC6CA059D
Filesize: 2.08 GB
Released: 18th Jun 2023

File Format: MP4 (MPEG-4)
Resolution: 1280x720 px
Aspect Ratio: 16:9

Gardeners' World S56E13 - Episode 13

Summary:

The team are Birmingham-bound for one of the highlights of the horticultural year - the annual Gardeners' World Live event. Monty Don, Arit Anderson, Adam Frost, Sue Kent, Carol Klein, Joe Swift, Rachel de Thame and Frances Tophill bring us the best the gardening world has to offer.

From design inspiration in the show gardens to the latest plants and flowers in the floral marquee, they meet expert growers who share their passion for cacti and hydrangeas as well as gain tips on how to design with foliage and create a garden that offers both an abundance of food and a feast for the eyes.



Gardeners World S56E13 Episode 13 720p WEB-DL x264-NGP EZTV
Gardeners' World S56E13 Screenshot


General
Complete name: Gardeners.World.S56E13.Episode.13.720p.WEB-DL.x264-NGP.mp4
Format: MPEG-4
Format profile: Base Media / Version 2
Codec ID: mp42 (isom/iso2/avc1/mp41)
File size: 2.08 GiB
Duration: 59 min 15 s
Overall bit rate mode: Variable
Overall bit rate: 5 033 kb/s
Collection: Gardeners' World: 2023
Season: 1
Album: Gardeners' World: 2023
Album/Performer: BBC TV
Part: 13
Part/Position: 1
Track name: Episode 13
Track name/Position: 13
Grouping: Factual,Homes & Gardens,Gardens
Performer: BBC Two
Composer: BBC iPlayer
Genre: Factual
ContentType: TV Show
Description: The team are Birmingham-bound for the annual Gardeners' World Live event
Recorded date: UTC 2023-06-16 19:00:00
Tagged date: UTC 2023-06-16 22:45:13
Copyright: 2023 British Broadcasting Corporation, all rights reserved
Cover: Yes
Lyrics: The team are Birmingham-bound for one of the highlights of the horticultural year - the annual Gardeners' World Live event. Monty Don, Arit Anderson, Adam Frost, Sue Kent, Carol Klein, Joe Swift, Rachel de Thame and Frances Tophill bring us the best the gardening world has to offer. / / From design inspiration in the show gardens to the latest plants and flowers in the floral marquee, they meet expert growers who share their passion for cacti and hydrangeas as well as gain tips on how to design with foliage and create a garden that offers both an abundance of food and a feast for the eyes. / / PLAY: https://www.bbc.co.uk/iplayer/episode/m001mx8y / / INFO: https://www.bbc.co.uk/programmes/m001mx8y
Comment: The team are Birmingham-bound for the annual Gardeners' World Live event
TVNetworkName: BBC Two
Part_ID: s01e13
LongDescription: The team are Birmingham-bound for one of the highlights of the horticultural year - the annual Gardeners' World Live event. Monty Don, Arit Anderson, Adam Frost, Sue Kent, Carol Klein, Joe Swift, Rachel de Thame and Frances Tophill bring us the best the gardening world has to offer. / / From design inspiration in the show gardens to the latest plants and flowers in the floral marquee, they meet expert growers who share their passion for cacti and hydrangeas as well as gain tips on how to design with foliage and create a garden that offers both an abundance of food and a feast for the eyes. / / PLAY: https://www.bbc.co.uk/iplayer/episode/m001mx8y / / INFO: https://www.bbc.co.uk/programmes/m001mx8y
HDVideo: Yes

Video
ID: 1
Format: AVC
Format/Info: Advanced Video Codec
Format profile: [email protected]
Format settings: CABAC / 4 Ref Frames
Format settings, CABAC: Yes
Format settings, Reference frames: 4 frames
Codec ID: avc1
Codec ID/Info: Advanced Video Coding
Duration: 59 min 15 s
Source duration: 59 min 15 s
Bit rate: 4 879 kb/s
Width: 1 280 pixels
Height: 720 pixels
Display aspect ratio: 16:9
Frame rate mode: Variable
Frame rate: 50.000 FPS
Minimum frame rate: 25.000 FPS
Maximum frame rate: 90 000.000 FPS
Color space: YUV
Chroma subsampling: 4:2:0
Bit depth: 8 bits
Scan type: Progressive
Bits/(Pixel*Frame): 0.106
Stream size: 2.02 GiB (97%)
Source stream size: 2.02 GiB (97%)
Language: English
Color range: Limited
Color primaries: BT.709
Transfer characteristics: BT.709
Matrix coefficients: BT.709
mdhd_Duration: 3555440
Codec configuration box: avcC

Audio
ID: 2
Format: AAC LC
Format/Info: Advanced Audio Codec Low Complexity
Codec ID: mp4a-40-2
Duration: 59 min 15 s
Bit rate mode: Variable
Bit rate: 125 kb/s
Maximum bit rate: 129 kb/s / 129 kb/s
Channel(s): 2 channels
Channel layout: L R
Sampling rate: 48.0 kHz
Frame rate: 46.875 FPS (1024 SPF)
Compression mode: Lossy
Stream size: 53.1 MiB (2%)
Language: English
Default: Yes
Alternate group: 1
tagc: public.main-program-content

Text
ID: 3
Format: Timed Text
Muxing mode: sbtl
Codec ID: tx3g
Duration: 59 min 0 s
Bit rate mode: Variable
Bit rate: 136 b/s
Frame rate: 0.195 FPS
Stream size: 58.8 KiB (0%)
Language: English
Default: Yes
Forced: No
Alternate group: 2
Encoded date: UTC 2023-06-16 22:45:13
Tagged date: UTC 2023-06-16 22:45:13
tagc: public.main-program-content
ssl  EZTV RSS EZTV Status | EZTV API | DMCA: [email protected]