eztv.wf | eztvstatus.org
Search title:  
TV Packs only
 

Silo S01E09 720p x264-FENiX EZTV

Episode Breakdown
Silo
Silo TV Show S01E09

Season: 1
Episode: 9
Air Date: 23 June, 2023
Download Links
     Torrent Download     Magnet Download
     Anonymous Download
Added 9 months ago by eztv (verified).
Tracker Statistics
Seeds: 8
Peers: 3
Stats generated @ 09:19 on 20th Apr 2024
Torrent Info
Torrent File: Silo.S01E09.720p.x264-FENiX[eztv.re].mkv
Torrent Hash: EBAFFFC6DEDA2A4975A28686CEF9A0F27780C6D2
Filesize: 313 MB
Released: 22nd Jun 2023

File Format: MKV (Matroska)
Resolution: 1280x720 px
Aspect Ratio: 16:9
Alternate Releases S L
Silo S01E09 720p WEB h264-ETHEL 20 4
Silo S01E09 1080p WEB H264-NHTFS 86 2
Silo S01E09 480p x264-mSD 5 2
Silo S01E09 720p HEVC x265-MeGusta 10 1
Silo S01E09 720p x265-T0PAZ 7 3
Silo S01E09 1080p HEVC x265-MeGusta 65 6
Silo S01E09 1080p x265-ELiTE 8 1

Silo S01E09 - The Getaway

Summary:

Racked with guilt, Billings sets off on a personal mission, only to discover a mind-blowing clue from Juliette.



Silo S01E09 720p x264-FENiX EZTV
Silo S1E9 Screenshot


General
Unique ID: 37990126413490086550264122976563633990 (0x1C94A1D8312DAFA6069F8944FFB01F46)
Complete name: Silo.S01E09.720p.x264-FENiX.mkv
Format: Matroska
Format version: Version 4
File size: 313 MiB
Duration: 43 min 51 s
Overall bit rate: 997 kb/s
Movie name: Silo.S01E09
Writing application: Lavf59.16.100
Writing library: Lavf59.16.100
Comment: FENiX-Fri-23-Jun-2023,02:56:42,720p,24,fast,9986665,0,-1
ErrorDetectionType: Per level 1

Video
ID: 1
Format: AVC
Format/Info: Advanced Video Codec
Format profile: [email protected]
Format settings: CABAC / 4 Ref Frames
Format settings, CABAC: Yes
Format settings, Reference frames: 4 frames
Codec ID: V_MPEG4/ISO/AVC
Duration: 43 min 51 s
Bit rate: 529 kb/s
Width: 1 280 pixels
Height: 640 pixels
Display aspect ratio: 2.000
Frame rate mode: Variable
Color space: YUV
Chroma subsampling: 4:2:0
Bit depth: 8 bits
Scan type: Progressive
Stream size: 166 MiB (53%)
Writing library: x264 core 163
Encoding settings: cabac=1 / ref=2 / deblock=1:0:0 / analyse=0x3:0x113 / me=hex / subme=6 / psy=1 / psy_rd=1.00:0.00 / mixed_ref=1 / me_range=16 / chroma_me=1 / trellis=1 / 8x8dct=1 / cqm=0 / deadzone=21,11 / fast_pskip=1 / chroma_qp_offset=-2 / threads=20 / lookahead_threads=3 / sliced_threads=0 / nr=0 / decimate=1 / interlaced=0 / bluray_compat=0 / constrained_intra=0 / bframes=3 / b_pyramid=2 / b_adapt=1 / b_bias=0 / direct=1 / weightb=1 / open_gop=0 / weightp=1 / keyint=250 / keyint_min=23 / scenecut=40 / intra_refresh=0 / rc_lookahead=30 / rc=crf / mbtree=1 / crf=24.0 / qcomp=0.60 / qpmin=0 / qpmax=69 / qpstep=4 / ip_ratio=1.40 / aq=1:1.00
Default: Yes
Forced: No
Color range: Limited
Color primaries: BT.709
Transfer characteristics: BT.709
Matrix coefficients: BT.709

Audio
ID: 2
Format: AC-3
Format/Info: Audio Coding 3
Commercial name: Dolby Digital
Codec ID: A_AC3
Duration: 43 min 51 s
Bit rate mode: Constant
Bit rate: 448 kb/s
Channel(s): 6 channels
Channel layout: L R C LFE Ls Rs
Sampling rate: 48.0 kHz
Frame rate: 31.250 FPS (1536 SPF)
Bit depth: 32 bits
Compression mode: Lossy
Stream size: 141 MiB (45%)
Writing library: Lavc59.18.100 ac3
Language: English
Service kind: Complete Main
Default: Yes
Forced: No

Text
ID: 3
Format: UTF-8
Codec ID: S_TEXT/UTF8
Codec ID/Info: UTF-8 Plain Text
Duration: 42 min 41 s
Language: English
Default: No
Forced: No
ssl  EZTV RSS EZTV Status | EZTV API | DMCA: [email protected]