eztv.wf | eztvstatus.org
Search title:  
TV Packs only
 

Silo S01E10 Outside 1080p ATVP WEB-DL DDP5 1 H 264-NTb EZTV

Episode Breakdown
Silo
Silo TV Show S01E10

Season: 1
Episode: 10
Air Date: 30 June, 2023
Download Links
     Torrent Download     Magnet Download
     Anonymous Download
Added 7 months ago by eztv (verified).
Tracker Statistics
Seeds: 29
Peers: 2
Stats generated @ 14:33 on 22nd Feb 2024
Torrent Info
Torrent File: Silo.S01E10.Outside.1080p.ATVP.WEB-DL.DDP5.1.H.264-NTb[eztv.re].mkv
Torrent Hash: 9BD91E5230290D28C7BFEDCD7BD122E8E3B4FDCE
Filesize: 3.41 GB
Released: 30th Jun 2023

File Format: MKV (Matroska)
Resolution: 1920x1080 px
Aspect Ratio: 16:9
Alternate Releases S L
Silo S01E10 1080p WEB H264-NHTFS 132 6
Silo S01E10 1080p HEVC x265-MeGusta 74 6
Silo S01E10 720p WEB h264-ETHEL 26 2
Silo S01E10 XviD-AFG 3 6
Silo S01E10 720p HEVC x265-MeGusta 12 2
Silo S01E10 480p x264-mSD 12 2
Silo S01E10 FINAL MULTI 1080p WEB H264-HiggsBoson 1 2

Silo S01E10 - Outside

Summary:

Season finale. Juliette's fate seems sealed when certain truths finally come to light.



Silo S01E10 Outside 1080p ATVP WEB-DL DDP5 1 H 264-NTb EZTV
Silo S1E10 Screenshot


General
Unique ID: 143157382742138417971322356533211261993 (0x6BB31BE89FE24A0E916E238962016C29)
Complete name: Silo.S01E10.Outside.1080p.ATVP.WEB-DL.DDP5.1.H.264-NTb.mkv
Format: Matroska
Format version: Version 4
File size: 3.41 GiB
Duration: 44 min 21 s
Overall bit rate: 11.0 Mb/s
Writing application: mkvmerge v76.0 ('Celebration') 64-bit
Writing library: libebml v1.4.4 + libmatroska v1.7.1

Video
ID: 1
Format: AVC
Format/Info: Advanced Video Codec
Format profile: High@L4
Format settings: CABAC / 4 Ref Frames
Format settings, CABAC: Yes
Format settings, Reference frames: 4 frames
Codec ID: V_MPEG4/ISO/AVC
Duration: 44 min 21 s
Bit rate: 10.2 Mb/s
Width: 1 920 pixels
Height: 960 pixels
Display aspect ratio: 2.000
Frame rate mode: Constant
Frame rate: 23.976 (24000/1001) FPS
Color space: YUV
Chroma subsampling: 4:2:0
Bit depth: 8 bits
Scan type: Progressive
Bits/(Pixel*Frame): 0.232
Stream size: 3.17 GiB (93%)
Default: Yes
Forced: No
Color range: Limited
Color primaries: BT.709
Transfer characteristics: BT.709
Matrix coefficients: BT.709

Audio
ID: 2
Format: E-AC-3 JOC
Format/Info: Enhanced AC-3 with Joint Object Coding
Commercial name: Dolby Digital Plus with Dolby Atmos
Codec ID: A_EAC3
Duration: 44 min 21 s
Bit rate mode: Constant
Bit rate: 768 kb/s
Channel(s): 6 channels
Channel layout: L R C LFE Ls Rs
Sampling rate: 48.0 kHz
Frame rate: 31.250 FPS (1536 SPF)
Compression mode: Lossy
Stream size: 244 MiB (7%)
Language: English
Service kind: Complete Main
Default: Yes
Forced: No
Complexity index: 16
Number of dynamic objects: 15
Bed channel count: 1 channel
Bed channel configuration: LFE

Text #1
ID: 3
Format: UTF-8
Codec ID: S_TEXT/UTF8
Codec ID/Info: UTF-8 Plain Text
Duration: 40 min 44 s
Bit rate: 42 b/s
Frame rate: 0.156 FPS
Count of elements: 382
Stream size: 12.6 KiB (0%)
Language: English
Default: No
Forced: No

Text #2
ID: 4
Format: UTF-8
Codec ID: S_TEXT/UTF8
Codec ID/Info: UTF-8 Plain Text
Duration: 42 min 36 s
Bit rate: 47 b/s
Frame rate: 0.176 FPS
Count of elements: 449
Stream size: 14.8 KiB (0%)
Title: SDH
Language: English
Default: No
Forced: No

Text #3
ID: 5
Format: UTF-8
Codec ID: S_TEXT/UTF8
Codec ID/Info: UTF-8 Plain Text
Duration: 44 min 0 s
Bit rate: 56 b/s
Frame rate: 0.151 FPS
Count of elements: 400
Stream size: 18.2 KiB (0%)
Language: Arabic
Default: No
Forced: No

Text #4
ID: 6
Format: UTF-8
Codec ID: S_TEXT/UTF8
Codec ID/Info: UTF-8 Plain Text
Duration: 44 min 0 s
Bit rate: 55 b/s
Frame rate: 0.130 FPS
Count of elements: 342
Stream size: 17.9 KiB (0%)
Language: Bulgarian
Default: No
Forced: No

Text #5
ID: 7
Format: UTF-8
Codec ID: S_TEXT/UTF8
Codec ID/Info: UTF-8 Plain Text
Duration: 44 min 0 s
Bit rate: 35 b/s
Frame rate: 0.151 FPS
Count of elements: 400
Stream size: 11.4 KiB (0%)
Title: Chinese (Simplified)
Language: Mandarin (Hans)
Default: No
Forced: No

Text #6
ID: 8
Format: UTF-8
Codec ID: S_TEXT/UTF8
Codec ID/Info: UTF-8 Plain Text
Duration: 44 min 0 s
Bit rate: 38 b/s
Frame rate: 0.151 FPS
Count of elements: 400
Stream size: 12.3 KiB (0%)
Title: Chinese (Traditional)
Language: Mandarin (Hant)
Default: No
Forced: No

Text #7
ID: 9
Format: UTF-8
Codec ID: S_TEXT/UTF8
Codec ID/Info: UTF-8 Plain Text
Duration: 44 min 0 s
Bit rate: 35 b/s
Frame rate: 0.141 FPS
Count of elements: 372
Stream size: 11.5 KiB (0%)
Language: Czech
Default: No
Forced: No

Text #8
ID: 10
Format: UTF-8
Codec ID: S_TEXT/UTF8
Codec ID/Info: UTF-8 Plain Text
Duration: 44 min 0 s
Bit rate: 39 b/s
Frame rate: 0.140 FPS
Count of elements: 369
Stream size: 12.7 KiB (0%)
Language: Danish
Default: No
Forced: No

Text #9
ID: 11
Format: UTF-8
Codec ID: S_TEXT/UTF8
Codec ID/Info: UTF-8 Plain Text
Duration: 44 min 6 s
Bit rate: 37 b/s
Frame rate: 0.150 FPS
Count of elements: 396
Stream size: 12.0 KiB (0%)
Language: German
Default: No
Forced: No

Text #10
ID: 12
Format: UTF-8
Codec ID: S_TEXT/UTF8
Codec ID/Info: UTF-8 Plain Text
Duration: 44 min 0 s
Bit rate: 64 b/s
Frame rate: 0.148 FPS
Count of elements: 391
Stream size: 20.9 KiB (0%)
Language: Greek
Default: No
Forced: No

Text #11
ID: 13
Format: UTF-8
Codec ID: S_TEXT/UTF8
Codec ID/Info: UTF-8 Plain Text
Duration: 44 min 0 s
Bit rate: 40 b/s
Frame rate: 0.149 FPS
Count of elements: 394
Stream size: 13.2 KiB (0%)
Title: Spanish (Latin America)
Language: Spanish (Latin America)
Default: No
Forced: No

Text #12
ID: 14
Format: UTF-8
Codec ID: S_TEXT/UTF8
Codec ID/Info: UTF-8 Plain Text
Duration: 44 min 0 s
Bit rate: 40 b/s
Frame rate: 0.149 FPS
Count of elements: 394
Stream size: 13.1 KiB (0%)
Title: Spanish (Spain)
Language: Spanish (ES)
Default: No
Forced: No

Text #13
ID: 15
Format: UTF-8
Codec ID: S_TEXT/UTF8
Codec ID/Info: UTF-8 Plain Text
Duration: 44 min 0 s
Bit rate: 37 b/s
Frame rate: 0.147 FPS
Count of elements: 387
Stream size: 12.0 KiB (0%)
Language: Estonian
Default: No
Forced: No

Text #14
ID: 16
Format: UTF-8
Codec ID: S_TEXT/UTF8
Codec ID/Info: UTF-8 Plain Text
Duration: 44 min 0 s
Bit rate: 36 b/s
Frame rate: 0.141 FPS
Count of elements: 373
Stream size: 11.6 KiB (0%)
Language: Finnish
Default: No
Forced: No

Text #15
ID: 17
Format: UTF-8
Codec ID: S_TEXT/UTF8
Codec ID/Info: UTF-8 Plain Text
Duration: 44 min 4 s
Bit rate: 37 b/s
Frame rate: 0.165 FPS
Count of elements: 435
Stream size: 12.2 KiB (0%)
Title: French (Canada)
Language: French (CA)
Default: No
Forced: No

Text #16
ID: 18
Format: UTF-8
Codec ID: S_TEXT/UTF8
Codec ID/Info: UTF-8 Plain Text
Duration: 44 min 4 s
Bit rate: 37 b/s
Frame rate: 0.165 FPS
Count of elements: 435
Stream size: 12.2 KiB (0%)
Title: French (France)
Language: French (FR)
Default: No
Forced: No

Text #17
ID: 19
Format: UTF-8
Codec ID: S_TEXT/UTF8
Codec ID/Info: UTF-8 Plain Text
Duration: 44 min 0 s
Bit rate: 56 b/s
Frame rate: 0.151 FPS
Count of elements: 400
Stream size: 18.3 KiB (0%)
Language: Hebrew
Default: No
Forced: No

Text #18
ID: 20
Format: UTF-8
Codec ID: S_TEXT/UTF8
Codec ID/Info: UTF-8 Plain Text
Duration: 44 min 0 s
Bit rate: 105 b/s
Frame rate: 0.151 FPS
Count of elements: 400
Stream size: 34.1 KiB (0%)
Language: Hindi
Default: No
Forced: No

Text #19
ID: 21
Format: UTF-8
Codec ID: S_TEXT/UTF8
Codec ID/Info: UTF-8 Plain Text
Duration: 44 min 0 s
Bit rate: 37 b/s
Frame rate: 0.149 FPS
Count of elements: 393
Stream size: 12.2 KiB (0%)
Language: Hungarian
Default: No
Forced: No

Text #20
ID: 22
Format: UTF-8
Codec ID: S_TEXT/UTF8
Codec ID/Info: UTF-8 Plain Text
Duration: 44 min 0 s
Bit rate: 40 b/s
Frame rate: 0.151 FPS
Count of elements: 398
Stream size: 13.1 KiB (0%)
Language: Indonesian
Default: No
Forced: No

Text #21
ID: 23
Format: UTF-8
Codec ID: S_TEXT/UTF8
Codec ID/Info: UTF-8 Plain Text
Duration: 43 min 25 s
Bit rate: 41 b/s
Frame rate: 0.154 FPS
Count of elements: 401
Stream size: 13.2 KiB (0%)
Language: Italian
Default: No
Forced: No

Text #22
ID: 24
Format: UTF-8
Codec ID: S_TEXT/UTF8
Codec ID/Info: UTF-8 Plain Text
Duration: 44 min 0 s
Bit rate: 33 b/s
Frame rate: 0.153 FPS
Count of elements: 405
Stream size: 10.9 KiB (0%)
Language: Japanese
Default: No
Forced: No

Text #23
ID: 25
Format: UTF-8
Codec ID: S_TEXT/UTF8
Codec ID/Info: UTF-8 Plain Text
Duration: 44 min 0 s
Bit rate: 46 b/s
Frame rate: 0.152 FPS
Count of elements: 401
Stream size: 15.1 KiB (0%)
Language: Korean
Default: No
Forced: No

Text #24
ID: 26
Format: UTF-8
Codec ID: S_TEXT/UTF8
Codec ID/Info: UTF-8 Plain Text
Duration: 44 min 0 s
Bit rate: 38 b/s
Frame rate: 0.151 FPS
Count of elements: 400
Stream size: 12.5 KiB (0%)
Language: Lithuanian
Default: No
Forced: No

Text #25
ID: 27
Format: UTF-8
Codec ID: S_TEXT/UTF8
Codec ID/Info: UTF-8 Plain Text
Duration: 44 min 0 s
Bit rate: 41 b/s
Frame rate: 0.146 FPS
Count of elements: 385
Stream size: 13.3 KiB (0%)
Language: Latvian
Default: No
Forced: No

Text #26
ID: 28
Format: UTF-8
Codec ID: S_TEXT/UTF8
Codec ID/Info: UTF-8 Plain Text
Duration: 44 min 0 s
Bit rate: 38 b/s
Frame rate: 0.151 FPS
Count of elements: 399
Stream size: 12.3 KiB (0%)
Language: Malay
Default: No
Forced: No

Text #27
ID: 29
Format: UTF-8
Codec ID: S_TEXT/UTF8
Codec ID/Info: UTF-8 Plain Text
Duration: 44 min 0 s
Bit rate: 35 b/s
Frame rate: 0.126 FPS
Count of elements: 333
Stream size: 11.6 KiB (0%)
Language: Dutch
Default: No
Forced: No

Text #28
ID: 30
Format: UTF-8
Codec ID: S_TEXT/UTF8
Codec ID/Info: UTF-8 Plain Text
Duration: 44 min 0 s
Bit rate: 34 b/s
Frame rate: 0.122 FPS
Count of elements: 321
Stream size: 11.1 KiB (0%)
Language: Norwegian
Default: No
Forced: No

Text #29
ID: 31
Format: UTF-8
Codec ID: S_TEXT/UTF8
Codec ID/Info: UTF-8 Plain Text
Duration: 44 min 0 s
Bit rate: 35 b/s
Frame rate: 0.143 FPS
Count of elements: 377
Stream size: 11.6 KiB (0%)
Language: Polish
Default: No
Forced: No

Text #30
ID: 32
Format: UTF-8
Codec ID: S_TEXT/UTF8
Codec ID/Info: UTF-8 Plain Text
Duration: 44 min 0 s
Bit rate: 39 b/s
Frame rate: 0.150 FPS
Count of elements: 395
Stream size: 12.9 KiB (0%)
Title: Portuguese
Language: Portuguese
Default: No
Forced: No

Text #31
ID: 33
Format: UTF-8
Codec ID: S_TEXT/UTF8
Codec ID/Info: UTF-8 Plain Text
Duration: 44 min 0 s
Bit rate: 37 b/s
Frame rate: 0.146 FPS
Count of elements: 386
Stream size: 12.0 KiB (0%)
Title: Portuguese (Brazil)
Language: Portuguese (BR)
Default: No
Forced: No

Text #32
ID: 34
Format: UTF-8
Codec ID: S_TEXT/UTF8
Codec ID/Info: UTF-8 Plain Text
Duration: 44 min 0 s
Bit rate: 60 b/s
Frame rate: 0.149 FPS
Count of elements: 393
Stream size: 19.5 KiB (0%)
Language: Russian
Default: No
Forced: No

Text #33
ID: 35
Format: UTF-8
Codec ID: S_TEXT/UTF8
Codec ID/Info: UTF-8 Plain Text
Duration: 44 min 0 s
Bit rate: 35 b/s
Frame rate: 0.151 FPS
Count of elements: 398
Stream size: 11.4 KiB (0%)
Language: Slovak
Default: No
Forced: No

Text #34
ID: 36
Format: UTF-8
Codec ID: S_TEXT/UTF8
Codec ID/Info: UTF-8 Plain Text
Duration: 44 min 0 s
Bit rate: 32 b/s
Frame rate: 0.140 FPS
Count of elements: 369
Stream size: 10.6 KiB (0%)
Language: Slovenian
Default: No
Forced: No

Text #35
ID: 37
Format: UTF-8
Codec ID: S_TEXT/UTF8
Codec ID/Info: UTF-8 Plain Text
Duration: 44 min 0 s
Bit rate: 39 b/s
Frame rate: 0.150 FPS
Count of elements: 396
Stream size: 12.6 KiB (0%)
Language: Swedish
Default: No
Forced: No

Text #36
ID: 38
Format: UTF-8
Codec ID: S_TEXT/UTF8
Codec ID/Info: UTF-8 Plain Text
Duration: 44 min 0 s
Bit rate: 125 b/s
Frame rate: 0.151 FPS
Count of elements: 399
Stream size: 40.5 KiB (0%)
Language: Tamil
Default: No
Forced: No

Text #37
ID: 39
Format: UTF-8
Codec ID: S_TEXT/UTF8
Codec ID/Info: UTF-8 Plain Text
Duration: 44 min 0 s
Bit rate: 118 b/s
Frame rate: 0.151 FPS
Count of elements: 399
Stream size: 38.2 KiB (0%)
Language: Telugu
Default: No
Forced: No

Text #38
ID: 40
Format: UTF-8
Codec ID: S_TEXT/UTF8
Codec ID/Info: UTF-8 Plain Text
Duration: 44 min 0 s
Bit rate: 101 b/s
Frame rate: 0.151 FPS
Count of elements: 400
Stream size: 32.6 KiB (0%)
Language: Thai
Default: No
Forced: No

Text #39
ID: 41
Format: UTF-8
Codec ID: S_TEXT/UTF8
Codec ID/Info: UTF-8 Plain Text
Duration: 44 min 0 s
Bit rate: 39 b/s
Frame rate: 0.144 FPS
Count of elements: 379
Stream size: 12.8 KiB (0%)
Language: Turkish
Default: No
Forced: No

Text #40
ID: 42
Format: UTF-8
Codec ID: S_TEXT/UTF8
Codec ID/Info: UTF-8 Plain Text
Duration: 44 min 0 s
Bit rate: 58 b/s
Frame rate: 0.151 FPS
Count of elements: 400
Stream size: 18.7 KiB (0%)
Language: Ukrainian
Default: No
Forced: No

Text #41
ID: 43
Format: UTF-8
Codec ID: S_TEXT/UTF8
Codec ID/Info: UTF-8 Plain Text
Duration: 44 min 0 s
Bit rate: 52 b/s
Frame rate: 0.151 FPS
Count of elements: 400
Stream size: 16.9 KiB (0%)
Language: Vietnamese
Default: No
Forced: No

Text #42
ID: 44
Format: UTF-8
Codec ID: S_TEXT/UTF8
Codec ID/Info: UTF-8 Plain Text
Duration: 44 min 0 s
Bit rate: 34 b/s
Frame rate: 0.151 FPS
Count of elements: 400
Stream size: 11.3 KiB (0%)
Title: Cantonese (Traditional)
Language: Cantonese (Hant)
Default: No
Forced: No

Menu
00:00:00.000: en:Chapter 1
00:09:08.708: en:Intro
00:10:25.665: en:Chapter 2
ssl  EZTV RSS EZTV Status | EZTV API | DMCA: [email protected]