eztv.wf | eztvstatus.org
Search title:  
TV Packs only
 

Silo S01E05 The Janitors Boy 1080p ATVP WEB-DL DDP5 1 H 264-NTb EZTV

Episode Breakdown
Silo
Silo TV Show S01E05

Season: 1
Episode: 5
Air Date: 26 May, 2023
Download Links
     Torrent Download     Magnet Download
     Anonymous Download
Added 7 months ago by eztv (verified).
Tracker Statistics
Seeds: 19
Peers: 2
Stats generated @ 16:15 on 22nd Feb 2024
Torrent Info
Torrent File: Silo.S01E05.The.Janitors.Boy.1080p.ATVP.WEB-DL.DDP5.1.H.264-NTb[eztv.re].mkv
Torrent Hash: 8AD878F1735AFF776BD8B81E7BF23E60D4BF758C
Filesize: 3.87 GB
Released: 30th Jun 2023

File Format: MKV (Matroska)
Resolution: 1920x1080 px
Aspect Ratio: 16:9
Alternate Releases S L
Silo S01E05 1080p WEB H264-CAKES 27 0
Silo S01E05 720p WEB H264-CAKES 22 1
Silo S01E05 XviD-AFG 5 1
Silo S01E05 480p x264-mSD 7 0
Silo S01E05 720p HEVC x265-MeGusta 10 0
Silo S01E05 1080p HEVC x265-MeGusta 132 4
Silo S01E05 The Janitors Boy 1080p ATVP WEBRip DDP5 1 x264-NTb 22 0

Silo S01E05 - The Janitor's Boy

Summary:

Sims appoints Billings as chief deputy to keep tabs on Juliette, whose efforts to solve two murders lead to a showdown.



Silo S01E05 The Janitors Boy 1080p ATVP WEB-DL DDP5 1 H 264-NTb EZTV
Silo S1E5 Screenshot


General
Unique ID: 79233413158696745668659181779336688944 (0x3B9BCCE0732DE5BFAB4F648BC855F530)
Complete name: Silo.S01E05.The.Janitors.Boy.1080p.ATVP.WEB-DL.DDP5.1.H.264-NTb.mkv
Format: Matroska
Format version: Version 4
File size: 3.87 GiB
Duration: 50 min 50 s
Overall bit rate: 10.9 Mb/s
Writing application: mkvmerge v75.0.0 ('Goliath') 64-bit
Writing library: libebml v1.4.4 + libmatroska v1.7.1

Video
ID: 1
Format: AVC
Format/Info: Advanced Video Codec
Format profile: High@L4
Format settings: CABAC / 4 Ref Frames
Format settings, CABAC: Yes
Format settings, Reference frames: 4 frames
Codec ID: V_MPEG4/ISO/AVC
Duration: 50 min 50 s
Bit rate: 10.1 Mb/s
Width: 1 920 pixels
Height: 960 pixels
Display aspect ratio: 2.000
Frame rate mode: Constant
Frame rate: 23.976 (24000/1001) FPS
Color space: YUV
Chroma subsampling: 4:2:0
Bit depth: 8 bits
Scan type: Progressive
Bits/(Pixel*Frame): 0.229
Stream size: 3.60 GiB (93%)
Default: Yes
Forced: No
Color range: Limited
Color primaries: BT.709
Transfer characteristics: BT.709
Matrix coefficients: BT.709

Audio
ID: 2
Format: E-AC-3 JOC
Format/Info: Enhanced AC-3 with Joint Object Coding
Commercial name: Dolby Digital Plus with Dolby Atmos
Codec ID: A_EAC3
Duration: 50 min 50 s
Bit rate mode: Constant
Bit rate: 768 kb/s
Channel(s): 6 channels
Channel layout: L R C LFE Ls Rs
Sampling rate: 48.0 kHz
Frame rate: 31.250 FPS (1536 SPF)
Compression mode: Lossy
Stream size: 279 MiB (7%)
Language: English
Service kind: Complete Main
Default: Yes
Forced: No
Complexity index: 16
Number of dynamic objects: 15
Bed channel count: 1 channel
Bed channel configuration: LFE

Text #1
ID: 3
Format: UTF-8
Codec ID: S_TEXT/UTF8
Codec ID/Info: UTF-8 Plain Text
Duration: 47 min 10 s
Bit rate: 64 b/s
Frame rate: 0.206 FPS
Count of elements: 583
Stream size: 22.3 KiB (0%)
Language: English
Default: No
Forced: No

Text #2
ID: 4
Format: UTF-8
Codec ID: S_TEXT/UTF8
Codec ID/Info: UTF-8 Plain Text
Duration: 48 min 41 s
Bit rate: 66 b/s
Frame rate: 0.216 FPS
Count of elements: 630
Stream size: 23.6 KiB (0%)
Title: SDH
Language: English
Default: No
Forced: No

Text #3
ID: 5
Format: UTF-8
Codec ID: S_TEXT/UTF8
Codec ID/Info: UTF-8 Plain Text
Duration: 50 min 36 s
Bit rate: 86 b/s
Frame rate: 0.197 FPS
Count of elements: 599
Stream size: 32.1 KiB (0%)
Language: Arabic
Default: No
Forced: No

Text #4
ID: 6
Format: UTF-8
Codec ID: S_TEXT/UTF8
Codec ID/Info: UTF-8 Plain Text
Duration: 50 min 36 s
Bit rate: 86 b/s
Frame rate: 0.174 FPS
Count of elements: 527
Stream size: 31.9 KiB (0%)
Language: Bulgarian
Default: No
Forced: No

Text #5
ID: 7
Format: UTF-8
Codec ID: S_TEXT/UTF8
Codec ID/Info: UTF-8 Plain Text
Duration: 50 min 36 s
Bit rate: 52 b/s
Frame rate: 0.197 FPS
Count of elements: 599
Stream size: 19.5 KiB (0%)
Title: Chinese (Simplified)
Language: Mandarin (Hans)
Default: No
Forced: No

Text #6
ID: 8
Format: UTF-8
Codec ID: S_TEXT/UTF8
Codec ID/Info: UTF-8 Plain Text
Duration: 50 min 36 s
Bit rate: 57 b/s
Frame rate: 0.198 FPS
Count of elements: 600
Stream size: 21.1 KiB (0%)
Title: Chinese (Traditional)
Language: Mandarin (Hant)
Default: No
Forced: No

Text #7
ID: 9
Format: UTF-8
Codec ID: S_TEXT/UTF8
Codec ID/Info: UTF-8 Plain Text
Duration: 50 min 36 s
Bit rate: 52 b/s
Frame rate: 0.185 FPS
Count of elements: 562
Stream size: 19.6 KiB (0%)
Language: Czech
Default: No
Forced: No

Text #8
ID: 10
Format: UTF-8
Codec ID: S_TEXT/UTF8
Codec ID/Info: UTF-8 Plain Text
Duration: 50 min 36 s
Bit rate: 58 b/s
Frame rate: 0.177 FPS
Count of elements: 536
Stream size: 21.6 KiB (0%)
Language: Danish
Default: No
Forced: No

Text #9
ID: 11
Format: UTF-8
Codec ID: S_TEXT/UTF8
Codec ID/Info: UTF-8 Plain Text
Duration: 50 min 40 s
Bit rate: 54 b/s
Frame rate: 0.193 FPS
Count of elements: 588
Stream size: 20.1 KiB (0%)
Language: German
Default: No
Forced: No

Text #10
ID: 12
Format: UTF-8
Codec ID: S_TEXT/UTF8
Codec ID/Info: UTF-8 Plain Text
Duration: 50 min 36 s
Bit rate: 97 b/s
Frame rate: 0.192 FPS
Count of elements: 584
Stream size: 36.3 KiB (0%)
Language: Greek
Default: No
Forced: No

Text #11
ID: 13
Format: UTF-8
Codec ID: S_TEXT/UTF8
Codec ID/Info: UTF-8 Plain Text
Duration: 50 min 36 s
Bit rate: 59 b/s
Frame rate: 0.196 FPS
Count of elements: 596
Stream size: 22.0 KiB (0%)
Title: Spanish (Latin America)
Language: Spanish (Latin America)
Default: No
Forced: No

Text #12
ID: 14
Format: UTF-8
Codec ID: S_TEXT/UTF8
Codec ID/Info: UTF-8 Plain Text
Duration: 50 min 36 s
Bit rate: 59 b/s
Frame rate: 0.197 FPS
Count of elements: 597
Stream size: 22.0 KiB (0%)
Title: Spanish (Spain)
Language: Spanish (ES)
Default: No
Forced: No

Text #13
ID: 15
Format: UTF-8
Codec ID: S_TEXT/UTF8
Codec ID/Info: UTF-8 Plain Text
Duration: 50 min 36 s
Bit rate: 55 b/s
Frame rate: 0.188 FPS
Count of elements: 571
Stream size: 20.5 KiB (0%)
Language: Estonian
Default: No
Forced: No

Text #14
ID: 16
Format: UTF-8
Codec ID: S_TEXT/UTF8
Codec ID/Info: UTF-8 Plain Text
Duration: 50 min 36 s
Bit rate: 52 b/s
Frame rate: 0.185 FPS
Count of elements: 563
Stream size: 19.6 KiB (0%)
Language: Finnish
Default: No
Forced: No

Text #15
ID: 17
Format: UTF-8
Codec ID: S_TEXT/UTF8
Codec ID/Info: UTF-8 Plain Text
Duration: 50 min 40 s
Bit rate: 55 b/s
Frame rate: 0.207 FPS
Count of elements: 628
Stream size: 20.8 KiB (0%)
Title: French (Canada)
Language: French (CA)
Default: No
Forced: No

Text #16
ID: 18
Format: UTF-8
Codec ID: S_TEXT/UTF8
Codec ID/Info: UTF-8 Plain Text
Duration: 50 min 40 s
Bit rate: 55 b/s
Frame rate: 0.207 FPS
Count of elements: 628
Stream size: 20.8 KiB (0%)
Title: French (France)
Language: French (FR)
Default: No
Forced: No

Text #17
ID: 19
Format: UTF-8
Codec ID: S_TEXT/UTF8
Codec ID/Info: UTF-8 Plain Text
Duration: 50 min 36 s
Bit rate: 85 b/s
Frame rate: 0.197 FPS
Count of elements: 599
Stream size: 31.8 KiB (0%)
Language: Hebrew
Default: No
Forced: No

Text #18
ID: 20
Format: UTF-8
Codec ID: S_TEXT/UTF8
Codec ID/Info: UTF-8 Plain Text
Duration: 50 min 36 s
Bit rate: 157 b/s
Frame rate: 0.198 FPS
Count of elements: 600
Stream size: 58.4 KiB (0%)
Language: Hindi
Default: No
Forced: No

Text #19
ID: 21
Format: UTF-8
Codec ID: S_TEXT/UTF8
Codec ID/Info: UTF-8 Plain Text
Duration: 50 min 36 s
Bit rate: 56 b/s
Frame rate: 0.196 FPS
Count of elements: 595
Stream size: 21.1 KiB (0%)
Language: Hungarian
Default: No
Forced: No

Text #20
ID: 22
Format: UTF-8
Codec ID: S_TEXT/UTF8
Codec ID/Info: UTF-8 Plain Text
Duration: 50 min 36 s
Bit rate: 60 b/s
Frame rate: 0.196 FPS
Count of elements: 596
Stream size: 22.6 KiB (0%)
Language: Indonesian
Default: No
Forced: No

Text #21
ID: 23
Format: UTF-8
Codec ID: S_TEXT/UTF8
Codec ID/Info: UTF-8 Plain Text
Duration: 49 min 54 s
Bit rate: 61 b/s
Frame rate: 0.198 FPS
Count of elements: 593
Stream size: 22.4 KiB (0%)
Language: Italian
Default: No
Forced: No

Text #22
ID: 24
Format: UTF-8
Codec ID: S_TEXT/UTF8
Codec ID/Info: UTF-8 Plain Text
Duration: 50 min 36 s
Bit rate: 48 b/s
Frame rate: 0.201 FPS
Count of elements: 610
Stream size: 18.1 KiB (0%)
Language: Japanese
Default: No
Forced: No

Text #23
ID: 25
Format: UTF-8
Codec ID: S_TEXT/UTF8
Codec ID/Info: UTF-8 Plain Text
Duration: 50 min 36 s
Bit rate: 69 b/s
Frame rate: 0.198 FPS
Count of elements: 600
Stream size: 25.9 KiB (0%)
Language: Korean
Default: No
Forced: No

Text #24
ID: 26
Format: UTF-8
Codec ID: S_TEXT/UTF8
Codec ID/Info: UTF-8 Plain Text
Duration: 50 min 36 s
Bit rate: 61 b/s
Frame rate: 0.197 FPS
Count of elements: 599
Stream size: 22.7 KiB (0%)
Language: Lithuanian
Default: No
Forced: No

Text #25
ID: 27
Format: UTF-8
Codec ID: S_TEXT/UTF8
Codec ID/Info: UTF-8 Plain Text
Duration: 50 min 36 s
Bit rate: 62 b/s
Frame rate: 0.191 FPS
Count of elements: 580
Stream size: 23.2 KiB (0%)
Language: Latvian
Default: No
Forced: No

Text #26
ID: 28
Format: UTF-8
Codec ID: S_TEXT/UTF8
Codec ID/Info: UTF-8 Plain Text
Duration: 50 min 36 s
Bit rate: 57 b/s
Frame rate: 0.197 FPS
Count of elements: 597
Stream size: 21.4 KiB (0%)
Language: Malay
Default: No
Forced: No

Text #27
ID: 29
Format: UTF-8
Codec ID: S_TEXT/UTF8
Codec ID/Info: UTF-8 Plain Text
Duration: 50 min 36 s
Bit rate: 54 b/s
Frame rate: 0.167 FPS
Count of elements: 506
Stream size: 20.3 KiB (0%)
Language: Dutch
Default: No
Forced: No

Text #28
ID: 30
Format: UTF-8
Codec ID: S_TEXT/UTF8
Codec ID/Info: UTF-8 Plain Text
Duration: 50 min 36 s
Bit rate: 51 b/s
Frame rate: 0.157 FPS
Count of elements: 477
Stream size: 19.0 KiB (0%)
Language: Norwegian
Default: No
Forced: No

Text #29
ID: 31
Format: UTF-8
Codec ID: S_TEXT/UTF8
Codec ID/Info: UTF-8 Plain Text
Duration: 50 min 36 s
Bit rate: 54 b/s
Frame rate: 0.182 FPS
Count of elements: 553
Stream size: 20.3 KiB (0%)
Language: Polish
Default: No
Forced: No

Text #30
ID: 32
Format: UTF-8
Codec ID: S_TEXT/UTF8
Codec ID/Info: UTF-8 Plain Text
Duration: 50 min 36 s
Bit rate: 60 b/s
Frame rate: 0.195 FPS
Count of elements: 592
Stream size: 22.3 KiB (0%)
Title: Portuguese
Language: Portuguese
Default: No
Forced: No

Text #31
ID: 33
Format: UTF-8
Codec ID: S_TEXT/UTF8
Codec ID/Info: UTF-8 Plain Text
Duration: 50 min 36 s
Bit rate: 54 b/s
Frame rate: 0.189 FPS
Count of elements: 573
Stream size: 20.3 KiB (0%)
Title: Portuguese (Brazil)
Language: Portuguese (BR)
Default: No
Forced: No

Text #32
ID: 34
Format: UTF-8
Codec ID: S_TEXT/UTF8
Codec ID/Info: UTF-8 Plain Text
Duration: 50 min 36 s
Bit rate: 88 b/s
Frame rate: 0.189 FPS
Count of elements: 575
Stream size: 32.9 KiB (0%)
Language: Russian
Default: No
Forced: No

Text #33
ID: 35
Format: UTF-8
Codec ID: S_TEXT/UTF8
Codec ID/Info: UTF-8 Plain Text
Duration: 50 min 36 s
Bit rate: 55 b/s
Frame rate: 0.195 FPS
Count of elements: 593
Stream size: 20.5 KiB (0%)
Language: Slovak
Default: No
Forced: No

Text #34
ID: 36
Format: UTF-8
Codec ID: S_TEXT/UTF8
Codec ID/Info: UTF-8 Plain Text
Duration: 50 min 36 s
Bit rate: 49 b/s
Frame rate: 0.177 FPS
Count of elements: 537
Stream size: 18.4 KiB (0%)
Language: Slovenian
Default: No
Forced: No

Text #35
ID: 37
Format: UTF-8
Codec ID: S_TEXT/UTF8
Codec ID/Info: UTF-8 Plain Text
Duration: 50 min 36 s
Bit rate: 58 b/s
Frame rate: 0.196 FPS
Count of elements: 595
Stream size: 21.7 KiB (0%)
Language: Swedish
Default: No
Forced: No

Text #36
ID: 38
Format: UTF-8
Codec ID: S_TEXT/UTF8
Codec ID/Info: UTF-8 Plain Text
Duration: 50 min 36 s
Bit rate: 190 b/s
Frame rate: 0.197 FPS
Count of elements: 599
Stream size: 70.6 KiB (0%)
Language: Tamil
Default: No
Forced: No

Text #37
ID: 39
Format: UTF-8
Codec ID: S_TEXT/UTF8
Codec ID/Info: UTF-8 Plain Text
Duration: 50 min 36 s
Bit rate: 177 b/s
Frame rate: 0.197 FPS
Count of elements: 599
Stream size: 65.9 KiB (0%)
Language: Telugu
Default: No
Forced: No

Text #38
ID: 40
Format: UTF-8
Codec ID: S_TEXT/UTF8
Codec ID/Info: UTF-8 Plain Text
Duration: 50 min 36 s
Bit rate: 150 b/s
Frame rate: 0.197 FPS
Count of elements: 599
Stream size: 55.9 KiB (0%)
Language: Thai
Default: No
Forced: No

Text #39
ID: 41
Format: UTF-8
Codec ID: S_TEXT/UTF8
Codec ID/Info: UTF-8 Plain Text
Duration: 50 min 36 s
Bit rate: 60 b/s
Frame rate: 0.191 FPS
Count of elements: 579
Stream size: 22.5 KiB (0%)
Language: Turkish
Default: No
Forced: No

Text #40
ID: 42
Format: UTF-8
Codec ID: S_TEXT/UTF8
Codec ID/Info: UTF-8 Plain Text
Duration: 50 min 36 s
Bit rate: 87 b/s
Frame rate: 0.197 FPS
Count of elements: 597
Stream size: 32.6 KiB (0%)
Language: Ukrainian
Default: No
Forced: No

Text #41
ID: 43
Format: UTF-8
Codec ID: S_TEXT/UTF8
Codec ID/Info: UTF-8 Plain Text
Duration: 50 min 36 s
Bit rate: 76 b/s
Frame rate: 0.197 FPS
Count of elements: 597
Stream size: 28.3 KiB (0%)
Language: Vietnamese
Default: No
Forced: No

Text #42
ID: 44
Format: UTF-8
Codec ID: S_TEXT/UTF8
Codec ID/Info: UTF-8 Plain Text
Duration: 50 min 36 s
Bit rate: 52 b/s
Frame rate: 0.198 FPS
Count of elements: 600
Stream size: 19.4 KiB (0%)
Title: Cantonese (Traditional)
Language: Cantonese (Hant)
Default: No
Forced: No

Menu
00:00:00.000: en:Chapter 1
00:14:26.458: en:Intro
00:15:43.415: en:Chapter 2
ssl  EZTV RSS EZTV Status | EZTV API | DMCA: [email protected]