eztv.wf | eztvstatus.org
Search title:  
TV Packs only
 

The Chase 2009 2023 07 31 720p STV WEB-DL AAC2 0 H 264-NGP EZTV

Episode Breakdown
The Chase
The Chase TV Show

Air Date: 31 May, 2023
Download Links
     Torrent Download     Magnet Download
     Anonymous Download
Added 4 months ago by eztv (verified).
Tracker Statistics
Seeds: 1
Peers: 0
Stats generated @ 03:52 on 11th Dec 2023
Torrent Info
Torrent File: The.Chase.2009.2023.07.31.720p.STV.WEB-DL.AAC2.0.H.264-NGP[eztv.re].mkv
Torrent Hash: E1492A2C12F04CC57B69E33F294E3F50E40C48F2
Filesize: 607 MB
Released: 5th Aug 2023

File Format: MKV (Matroska)
Resolution: 1280x720 px
Aspect Ratio: 16:9
Alternate Releases S L
The Chase 2009 2023 05 31 720p STV WEB-DL AAC2 0 H 264-NGP 0 1
The Chase 2009 2023 05 29 720p STV WEB-DL AAC2 0 H 264-NGP 0 0
The Chase 2009 2023 05 26 720p STV WEB-DL AAC2 0 H 264-NGP 0 1
The Chase 2009 2023 06 02 720p STV WEB-DL AAC2 0 H 264-NGP 0 1
The Chase 2009 2023 06 01 720p STV WEB-DL AAC2 0 H 264-NGP 0 1
The Chase 2009 2023 05 30 720p STV WEB-DL AAC2 0 H 264-NGP 0 1
The Chase 2009 2023 05 25 720p STV WEB-DL AAC2 0 H 264-NGP 0 1

Episode Description
The Chase 2009 2023 07 31 720p STV WEB-DL AAC2 0 H 264-NGP EZTV
The Chase Screenshot


General
Unique ID: 195287560975871520628861636752233789501 (0x92EB042213C825BEF3B99EFAD3A0F83D)
Complete name: The.Chase.2009.2023.07.31.720p.STV.WEB-DL.AAC2.0.H.264-NGP.mkv
Format: Matroska
Format version: Version 4
File size: 607 MiB
Duration: 45 min 7 s
Overall bit rate mode: Variable
Overall bit rate: 1 882 kb/s
Frame rate: 25.000 FPS
Encoded date: 2023-08-06 01:21:14 UTC
Writing application: mkvmerge v77.0 ('Elemental') 64-bit
Writing library: libebml v1.4.4 + libmatroska v1.7.1
Cover: Yes
Attachments: cover.jpg

Video
ID: 1
Format: AVC
Format/Info: Advanced Video Codec
Format profile: [email protected]
Format settings: CABAC / 4 Ref Frames
Format settings, CABAC: Yes
Format settings, Reference frames: 4 frames
Codec ID: V_MPEG4/ISO/AVC
Duration: 45 min 7 s
Bit rate mode: Variable
Bit rate: 1 751 kb/s
Maximum bit rate: 2 646 kb/s
Width: 1 280 pixels
Height: 720 pixels
Display aspect ratio: 16:9
Frame rate mode: Constant
Frame rate: 25.000 FPS
Color space: YUV
Chroma subsampling: 4:2:0
Bit depth: 8 bits
Scan type: Progressive
Bits/(Pixel*Frame): 0.076
Stream size: 565 MiB (93%)
Language: English
Default: No
Forced: No
Color range: Limited
Color primaries: BT.709
Transfer characteristics: BT.709
Matrix coefficients: BT.470 System B/G

Audio
ID: 2
Format: AAC LC
Format/Info: Advanced Audio Codec Low Complexity
Codec ID: A_AAC-2
Duration: 45 min 7 s
Bit rate: 128 kb/s
Channel(s): 2 channels
Channel layout: L R
Sampling rate: 48.0 kHz
Frame rate: 46.875 FPS (1024 SPF)
Compression mode: Lossy
Delay relative to video: -80 ms
Stream size: 41.3 MiB (7%)
Language: English
Default: No
Forced: No

Text
ID: 3
Format: D_WEBVTT/SUBTITLES
Codec ID: D_WEBVTT/SUBTITLES
Duration: 44 min 36 s
Bit rate: 179 b/s
Frame rate: 0.528 FPS
Count of elements: 1414
Stream size: 58.5 KiB (0%)
Language: English
Default: No
Forced: No
ssl  EZTV RSS EZTV Status | EZTV API | DMCA: [email protected]