eztv.wf | eztvstatus.org
Search title:  
TV Packs only
 

Silo S01E03 Machines 1080p WEBRip HDR10 10Bit DDP5 1 Atmos H265-d3g EZTV

Episode Breakdown
Silo
Silo TV Show S01E03

Season: 1
Episode: 3
Air Date: 12 May, 2023
Download Links
     Torrent Download     Magnet Download
     Anonymous Download
Added 6 months ago by eztv (verified).
Tracker Statistics
Seeds: 3
Peers: 6
Stats generated @ 14:52 on 22nd Feb 2024
Torrent Info
Torrent File: Silo.S01E03.Machines.1080p.WEBRip.HDR10.10Bit.DDP5.1.Atmos.H265-d3g[eztv.re].mkv
Torrent Hash: 25D57A8FFF3A1C4BD0E4BE4F68CF83F297F50DAD
Filesize: 4.55 GB
Released: 15th Aug 2023

File Format: MKV (Matroska)
Resolution: 1920x1080 px
Aspect Ratio: 16:9
Alternate Releases S L
Silo S01E03 1080p WEB H264-GGWP 19 2
Silo S01E03 1080p HEVC x265-MeGusta 107 8
Silo S01E03 720p HEVC x265-MeGusta 9 3
Silo S01E03 XviD-AFG 9 2
Silo S01E03 480p x264-mSD 8 3
Silo S01E03 720p WEB H264-GGEZ 20 3
Silo S01E03 Machines 1080p ATVP WEBRip DDP5 1 x264-NTb 10 10

Silo S01E03 - Machines

Summary:

In her hunt for a new sheriff, Mayor Jahns clashes with Bernard. Juliette strikes a deal to keep the generator running.



Silo S01E03 Machines 1080p WEBRip HDR10 10Bit DDP5 1 Atmos H265-d3g EZTV
Silo S1E3 Screenshot


General
Unique ID: 194540662198967622707974893936288029109 (0x925B2B2E2735AC8B80196178F70D59B5)
Complete name: Silo.S01E03.Machines.1080p.WEBRip.HDR10.10Bit.DDP5.1.Atmos.H265-d3g.mkv
Format: Matroska
Format version: Version 2
File size: 4.55 GiB
Duration: 1 h 2 min
Overall bit rate: 10.5 Mb/s
Frame rate: 23.976 FPS
Movie name: Silo.S01E03.Machines.1080p.WEBRip.HDR10.10Bit.DDP5.1.Atmos.H265-d3g
Encoded date: 2023-08-13 00:08:11 UTC
Writing application: DVDFab 12.1.1.2
Writing library: libebml v1.4.2 + libmatroska v1.6.3

Video
ID: 1
Format: HEVC
Format/Info: High Efficiency Video Coding
Format profile: Main [email protected]@High
HDR format: SMPTE ST 2086, HDR10 compatible
Codec ID: V_MPEGH/ISO/HEVC
Duration: 1 h 2 min
Bit rate: 9 664 kb/s
Width: 1 920 pixels
Height: 960 pixels
Display aspect ratio: 2.000
Frame rate mode: Constant
Frame rate: 23.976 (24000/1001) FPS
Color space: YUV
Chroma subsampling: 4:2:0 (Type 2)
Bit depth: 10 bits
Bits/(Pixel*Frame): 0.219
Stream size: 4.19 GiB (92%)
Default: Yes
Forced: No
Color range: Limited
Color primaries: BT.2020
Transfer characteristics: PQ
Matrix coefficients: BT.2020 non-constant
Mastering display color primaries: Display P3
Mastering display luminance: min: 0.0050 cd/m2, max: 1000 cd/m2
Maximum Content Light Level: 452 cd/m2
Maximum Frame-Average Light Level: 94 cd/m2

Audio
ID: 2
Format: E-AC-3 JOC
Format/Info: Enhanced AC-3 with Joint Object Coding
Commercial name: Dolby Digital Plus with Dolby Atmos
Codec ID: A_EAC3
Duration: 1 h 2 min
Bit rate mode: Constant
Bit rate: 768 kb/s
Channel(s): 6 channels
Channel layout: L R C LFE Ls Rs
Sampling rate: 48.0 kHz
Frame rate: 31.250 FPS (1536 SPF)
Compression mode: Lossy
Stream size: 341 MiB (7%)
Language: English
Service kind: Complete Main
Default: Yes
Forced: No
Complexity index: 16
Number of dynamic objects: 15
Bed channel count: 1 channel
Bed channel configuration: LFE

Text #1
ID: 3
Format: PGS
Codec ID: S_HDMV/PGS
Codec ID/Info: Picture based subtitle format used on BDs/HD-DVDs
Duration: 56 min 56 s
Bit rate: 32.1 kb/s
Frame rate: 0.402 FPS
Count of elements: 1374
Stream size: 13.1 MiB (0%)
Language: English
Default: Yes
Forced: No

Text #2
ID: 4
Format: PGS
Codec ID: S_HDMV/PGS
Codec ID/Info: Picture based subtitle format used on BDs/HD-DVDs
Duration: 1 h 0 min
Bit rate: 36.3 kb/s
Frame rate: 0.447 FPS
Count of elements: 1628
Stream size: 15.8 MiB (0%)
Language: English
Default: No
Forced: No
ssl  EZTV RSS EZTV Status | EZTV API | DMCA: [email protected]