eztv.wf | Friday 29th of September 2023 06:27 AM ET
Search title:  
TV Packs only
 

Futurama S08E09 The Prince and the Product 720p DSNP WEB-DL DDP5 1 H 264-FLUX EZTV

Episode Breakdown
Futurama
Futurama TV Show S08E09

Season: 8
Episode: 9
Air Date: 8 August, 2012
Download Links
     Torrent Download     Magnet Download
     Anonymous Download
Added 10 days ago by eztv (verified).
Tracker Statistics
Seeds: 164
Peers: 10
Stats generated @ 06:27 on 29th Sep 2023
Torrent Info
Torrent File: Futurama.S08E09.The.Prince.and.the.Product.720p.DSNP.WEB-DL.DDP5.1.H.264-FLUX[eztv.re].mkv
Torrent Hash: 0EED71981C8BDB88D657696094CD2961C5F10026
Filesize: 486.76 MB
Released: 18th Sep 2023

File Format: MKV (Matroska)
Resolution: 1280x720 px
Aspect Ratio: 16:9
Alternate Releases S L
Futurama S08E09 1080p WEB h264-NiXON 74 1
Futurama S08E09 MULTI 1080p WEB H264-HiggsBoson 1,224 31
Futurama S08E09 The Prince and the Product 1080p DSNP WEB-DL DDP5 1 H 264-FLUX 72 8
Futurama S08E09 The Prince and the Product 1080p DSNP WEB-DL DDP5 1 H 264-NTb 45 8

Futurama S08E09 - Free Will Hunting

Summary:

Bender embarks on a quest for the meaning of life after discovering that robots lack free will.



Futurama S08E09 The Prince and the Product 720p DSNP WEB-DL DDP5 1 H 264-FLUX EZTV
Futurama S8E9 Screenshot


General
Unique ID: 269942963834830109146205730941956589991 (0xCB151FACF0CA90F4E96E628F71C909A7)
Complete name: Futurama.S08E09.The.Prince.and.the.Product.720p.DSNP.WEB-DL.DDP5.1.H.264-FLUX.mkv
Format: Matroska
Format version: Version 4
File size: 487 MiB
Duration: 24 min 49 s
Overall bit rate mode: Variable
Overall bit rate: 2 742 kb/s
Frame rate: 23.976 FPS
Writing application: mkvmerge v79.0 ('Funeral Pyres') 64-bit
Writing library: libebml v1.4.4 + libmatroska v1.7.1

Video
ID: 1
Format: AVC
Format/Info: Advanced Video Codec
Format profile: [email protected]
Format settings: CABAC / 4 Ref Frames
Format settings, CABAC: Yes
Format settings, Reference frames: 4 frames
Codec ID: V_MPEG4/ISO/AVC
Duration: 24 min 49 s
Bit rate mode: Variable
Bit rate: 2 481 kb/s
Maximum bit rate: 6 375 kb/s
Width: 1 280 pixels
Height: 720 pixels
Display aspect ratio: 16:9
Frame rate mode: Constant
Frame rate: 23.976 (24000/1001) FPS
Color space: YUV
Chroma subsampling: 4:2:0
Bit depth: 8 bits
Scan type: Progressive
Bits/(Pixel*Frame): 0.112
Stream size: 440 MiB (90%)
Language: English
Default: Yes
Forced: No
Color range: Limited
Color primaries: BT.709
Transfer characteristics: BT.709
Matrix coefficients: BT.709

Audio
ID: 2
Format: E-AC-3
Format/Info: Enhanced AC-3
Commercial name: Dolby Digital Plus
Codec ID: A_EAC3
Duration: 24 min 49 s
Bit rate mode: Constant
Bit rate: 256 kb/s
Channel(s): 6 channels
Channel layout: L R C LFE Ls Rs
Sampling rate: 48.0 kHz
Frame rate: 31.250 FPS (1536 SPF)
Compression mode: Lossy
Stream size: 45.4 MiB (9%)
Language: English
Service kind: Complete Main
Default: Yes
Forced: No

Text #1
ID: 3
Format: UTF-8
Codec ID: S_TEXT/UTF8
Codec ID/Info: UTF-8 Plain Text
Duration: 23 min 14 s
Bit rate: 72 b/s
Frame rate: 0.307 FPS
Count of elements: 428
Stream size: 12.4 KiB (0%)
Language: English
Default: No
Forced: No

Text #2
ID: 4
Format: UTF-8
Codec ID: S_TEXT/UTF8
Codec ID/Info: UTF-8 Plain Text
Duration: 24 min 1 s
Bit rate: 91 b/s
Frame rate: 0.434 FPS
Count of elements: 626
Stream size: 16.2 KiB (0%)
Title: SDH
Language: English
Default: No
Forced: No

Text #3
ID: 5
Format: UTF-8
Codec ID: S_TEXT/UTF8
Codec ID/Info: UTF-8 Plain Text
Duration: 24 min 22 s
Bit rate: 71 b/s
Frame rate: 0.247 FPS
Count of elements: 361
Stream size: 12.7 KiB (0%)
Language: Czech
Default: No
Forced: No

Text #4
ID: 6
Format: UTF-8
Codec ID: S_TEXT/UTF8
Codec ID/Info: UTF-8 Plain Text
Duration: 24 min 22 s
Bit rate: 68 b/s
Frame rate: 0.244 FPS
Count of elements: 357
Stream size: 12.2 KiB (0%)
Language: Danish
Default: No
Forced: No

Text #5
ID: 7
Format: UTF-8
Codec ID: S_TEXT/UTF8
Codec ID/Info: UTF-8 Plain Text
Duration: 24 min 22 s
Bit rate: 77 b/s
Frame rate: 0.243 FPS
Count of elements: 356
Stream size: 13.9 KiB (0%)
Language: German
Default: No
Forced: No

Text #6
ID: 8
Format: UTF-8
Codec ID: S_TEXT/UTF8
Codec ID/Info: UTF-8 Plain Text
Duration: 24 min 22 s
Bit rate: 128 b/s
Frame rate: 0.248 FPS
Count of elements: 362
Stream size: 22.8 KiB (0%)
Language: Greek
Default: No
Forced: No

Text #7
ID: 9
Format: UTF-8
Codec ID: S_TEXT/UTF8
Codec ID/Info: UTF-8 Plain Text
Duration: 24 min 22 s
Bit rate: 71 b/s
Frame rate: 0.246 FPS
Count of elements: 359
Stream size: 12.8 KiB (0%)
Title: Latin American
Language: Spanish (Latin America)
Default: No
Forced: No

Text #8
ID: 10
Format: UTF-8
Codec ID: S_TEXT/UTF8
Codec ID/Info: UTF-8 Plain Text
Duration: 24 min 22 s
Bit rate: 71 b/s
Frame rate: 0.246 FPS
Count of elements: 359
Stream size: 12.7 KiB (0%)
Language: Spanish (ES)
Default: No
Forced: No

Text #9
ID: 11
Format: UTF-8
Codec ID: S_TEXT/UTF8
Codec ID/Info: UTF-8 Plain Text
Duration: 24 min 22 s
Bit rate: 70 b/s
Frame rate: 0.244 FPS
Count of elements: 357
Stream size: 12.6 KiB (0%)
Language: Finnish
Default: No
Forced: No

Text #10
ID: 12
Format: UTF-8
Codec ID: S_TEXT/UTF8
Codec ID/Info: UTF-8 Plain Text
Duration: 24 min 22 s
Bit rate: 73 b/s
Frame rate: 0.245 FPS
Count of elements: 358
Stream size: 13.1 KiB (0%)
Language: French (FR)
Default: No
Forced: No

Text #11
ID: 13
Format: UTF-8
Codec ID: S_TEXT/UTF8
Codec ID/Info: UTF-8 Plain Text
Duration: 24 min 22 s
Bit rate: 71 b/s
Frame rate: 0.246 FPS
Count of elements: 359
Stream size: 12.8 KiB (0%)
Language: Hungarian
Default: No
Forced: No

Text #12
ID: 14
Format: UTF-8
Codec ID: S_TEXT/UTF8
Codec ID/Info: UTF-8 Plain Text
Duration: 24 min 22 s
Bit rate: 71 b/s
Frame rate: 0.245 FPS
Count of elements: 358
Stream size: 12.7 KiB (0%)
Language: Italian
Default: No
Forced: No

Text #13
ID: 15
Format: UTF-8
Codec ID: S_TEXT/UTF8
Codec ID/Info: UTF-8 Plain Text
Duration: 24 min 27 s
Bit rate: 60 b/s
Frame rate: 0.238 FPS
Count of elements: 349
Stream size: 10.9 KiB (0%)
Language: Japanese
Default: No
Forced: No

Text #14
ID: 16
Format: UTF-8
Codec ID: S_TEXT/UTF8
Codec ID/Info: UTF-8 Plain Text
Duration: 24 min 28 s
Bit rate: 71 b/s
Frame rate: 0.248 FPS
Count of elements: 364
Stream size: 12.8 KiB (0%)
Language: Korean
Default: No
Forced: No

Text #15
ID: 17
Format: UTF-8
Codec ID: S_TEXT/UTF8
Codec ID/Info: UTF-8 Plain Text
Duration: 24 min 27 s
Bit rate: 64 b/s
Frame rate: 0.219 FPS
Count of elements: 321
Stream size: 11.5 KiB (0%)
Language: Dutch
Default: No
Forced: No

Text #16
ID: 18
Format: UTF-8
Codec ID: S_TEXT/UTF8
Codec ID/Info: UTF-8 Plain Text
Duration: 24 min 22 s
Bit rate: 65 b/s
Frame rate: 0.246 FPS
Count of elements: 359
Stream size: 11.7 KiB (0%)
Language: Norwegian
Default: No
Forced: No

Text #17
ID: 19
Format: UTF-8
Codec ID: S_TEXT/UTF8
Codec ID/Info: UTF-8 Plain Text
Duration: 23 min 58 s
Bit rate: 68 b/s
Frame rate: 0.245 FPS
Count of elements: 353
Stream size: 12.0 KiB (0%)
Language: Polish
Default: No
Forced: No

Text #18
ID: 20
Format: UTF-8
Codec ID: S_TEXT/UTF8
Codec ID/Info: UTF-8 Plain Text
Duration: 24 min 22 s
Bit rate: 67 b/s
Frame rate: 0.246 FPS
Count of elements: 360
Stream size: 12.1 KiB (0%)
Title: Brazilian
Language: Portuguese (BR)
Default: No
Forced: No

Text #19
ID: 21
Format: UTF-8
Codec ID: S_TEXT/UTF8
Codec ID/Info: UTF-8 Plain Text
Duration: 24 min 22 s
Bit rate: 72 b/s
Frame rate: 0.246 FPS
Count of elements: 359
Stream size: 13.0 KiB (0%)
Language: Portuguese (PT)
Default: No
Forced: No

Text #20
ID: 22
Format: UTF-8
Codec ID: S_TEXT/UTF8
Codec ID/Info: UTF-8 Plain Text
Duration: 24 min 22 s
Bit rate: 76 b/s
Frame rate: 0.245 FPS
Count of elements: 358
Stream size: 13.6 KiB (0%)
Language: Romanian
Default: No
Forced: No

Text #21
ID: 23
Format: UTF-8
Codec ID: S_TEXT/UTF8
Codec ID/Info: UTF-8 Plain Text
Duration: 24 min 22 s
Bit rate: 69 b/s
Frame rate: 0.246 FPS
Count of elements: 359
Stream size: 12.5 KiB (0%)
Language: Slovak
Default: No
Forced: No

Text #22
ID: 24
Format: UTF-8
Codec ID: S_TEXT/UTF8
Codec ID/Info: UTF-8 Plain Text
Duration: 24 min 22 s
Bit rate: 68 b/s
Frame rate: 0.244 FPS
Count of elements: 357
Stream size: 12.3 KiB (0%)
Language: Swedish
Default: No
Forced: No

Text #23
ID: 25
Format: UTF-8
Codec ID: S_TEXT/UTF8
Codec ID/Info: UTF-8 Plain Text
Duration: 24 min 22 s
Bit rate: 73 b/s
Frame rate: 0.246 FPS
Count of elements: 360
Stream size: 13.1 KiB (0%)
Language: Turkish
Default: No
Forced: No

Text #24
ID: 26
Format: UTF-8
Codec ID: S_TEXT/UTF8
Codec ID/Info: UTF-8 Plain Text
Duration: 24 min 28 s
Bit rate: 58 b/s
Frame rate: 0.248 FPS
Count of elements: 364
Stream size: 10.5 KiB (0%)
Title: Traditional
Language: Chinese (Traditional)
Default: No
Forced: No

Menu
00:00:11.553: en:Intro
00:00:32.574: en:Scene 1
00:24:00.023: en:Credits

ssl  EZTV RSS EZTV Status | EZTV API | DMCA: [email protected]