eztv.wf | eztvstatus.org
Search title:  
TV Packs only
 

The Killing Kind S01E01 1080p WEBRip DDP5 1 H265-d3g EZTV

Episode Breakdown
The Killing Kind
The Killing Kind TV Show S01E01

Season: 1
Episode: 1
Air Date: 7 September, 2023
Download Links
     Torrent Download     Magnet Download
     Anonymous Download
Added 10 months ago by eztv (verified).
Tracker Statistics
Seeds: 0
Peers: 1
Stats generated @ 19:27 on 23rd Jul 2024
Torrent Info
Torrent File: The.Killing.Kind.S01E01.1080p.WEBRip.DDP5.1.H265-d3g[eztv.re].mkv
Torrent Hash: 8B2A744CEF29AFB2E0E191B83D2D52451675A380
Filesize: 1.93 GB
Released: 18th Sep 2023

File Format: MKV (Matroska)
Resolution: 1920x1080 px
Aspect Ratio: 16:9
Alternate Releases S L
The Killing Kind S01E01 WEBRip x264-XEN0N 3 1
The Killing Kind S01E01 720p WEB h264-EDITH 0 0
The Killing Kind S01E01 1080p WEB h264-EDITH 1 1
The Killing Kind S01E01 480p x264-mSD 1 0
The Killing Kind S01E01 XviD-AFG 0 0

The Killing Kind S01E01 - Episode 1

Summary:

Following a trauma, Defence Barrister Ingrid Lewis is rebuilding her life when tragedy strikes when her friend and mentor dies. Ingrid believes she is a target and questions if John Webster, her former client turned stalker, is back in her life.



The Killing Kind S01E01 1080p WEBRip DDP5 1 H265-d3g EZTV
The Killing Kind S1E1 Screenshot


General
Unique ID: 239194083697418304627100645203005645556 (0xB3F31AD63992A4DCA2A4C78E076BA2F4)
Complete name: The.Killing.Kind.S01E01.1080p.WEBRip.DDP5.1.H265-d3g.mkv
Format: Matroska
Format version: Version 2
File size: 1.93 GiB
Duration: 48 min 59 s
Overall bit rate: 5 633 kb/s
Frame rate: 23.976 FPS
Movie name: The.Killing.Kind.S01E01.1080p.WEBRip.DDP5.1.H265-d3g
Encoded date: 2023-09-18 15:03:19 UTC
Writing application: DVDFab 12.1.1.5
Writing library: libebml v1.4.2 + libmatroska v1.6.3

Video
ID: 1
Format: HEVC
Format/Info: High Efficiency Video Coding
Format profile: Main@L4@Main
Codec ID: V_MPEGH/ISO/HEVC
Duration: 48 min 59 s
Bit rate: 4 918 kb/s
Width: 1 920 pixels
Height: 1 080 pixels
Display aspect ratio: 16:9
Frame rate mode: Constant
Frame rate: 23.976 (24000/1001) FPS
Color space: YUV
Chroma subsampling: 4:2:0
Bit depth: 8 bits
Bits/(Pixel*Frame): 0.099
Stream size: 1.68 GiB (87%)
Default: Yes
Forced: No
Color range: Limited
Color primaries: BT.709
Transfer characteristics: BT.709
Matrix coefficients: BT.709

Audio
ID: 2
Format: E-AC-3
Format/Info: Enhanced AC-3
Commercial name: Dolby Digital Plus
Codec ID: A_EAC3
Duration: 48 min 59 s
Bit rate mode: Constant
Bit rate: 640 kb/s
Channel(s): 6 channels
Channel layout: L R C LFE Ls Rs
Sampling rate: 48.0 kHz
Frame rate: 31.250 FPS (1536 SPF)
Compression mode: Lossy
Stream size: 224 MiB (11%)
Language: English
Service kind: Complete Main
Default: Yes
Forced: No

Text #1
ID: 3
Format: PGS
Codec ID: S_HDMV/PGS
Codec ID/Info: Picture based subtitle format used on BDs/HD-DVDs
Duration: 48 min 26 s
Bit rate: 33.9 kb/s
Frame rate: 0.435 FPS
Count of elements: 1264
Stream size: 11.8 MiB (0%)
Language: English
Default: Yes
Forced: No

Text #2
ID: 4
Format: PGS
Codec ID: S_HDMV/PGS
Codec ID/Info: Picture based subtitle format used on BDs/HD-DVDs
Duration: 48 min 40 s
Bit rate: 39.2 kb/s
Frame rate: 0.507 FPS
Count of elements: 1480
Stream size: 13.6 MiB (1%)
Language: English
Default: No
Forced: No

ssl  EZTV RSS EZTV Status | EZTV API | DMCA: [email protected]