eztv.wf | eztvstatus.org
Search title:  
TV Packs only
 

True Detective S04E05 Night Country Part 5 1080p AMZN WEB-DL DDP5 1 H 264-NTb EZTV

Episode Breakdown
True Detective
True Detective TV Show S04E05

Season: 4
Episode: 5
Air Date: 11 February, 2024
Download Links
     Torrent Download     Magnet Download
     Anonymous Download
Added 3 months ago by eztv (verified).
Tracker Statistics
Seeds: 24
Peers: 3
Stats generated @ 14:09 on 29th May 2024
Torrent Info
Torrent File: True.Detective.S04E05.Night.Country.Part.5.1080p.AMZN.WEB-DL.DDP5.1.H.264-NTb[EZTVx.to].mkv
Torrent Hash: 90B8F9F50F26B78E9EEBF1504DEE9099DB27A970
Filesize: 4.40 GB
Released: 10th Feb 2024

File Format: MKV (Matroska)
Resolution: 1920x1080 px
Aspect Ratio: 16:9
Alternate Releases S L
True Detective S04E05 1080p WEB h264-ETHEL 320 4
True Detective S04E05 XviD-AFG 36 2
True Detective S04E05 Night Country Part 5 720p AMZN WEB-DL DDP5 1 H 264-NTb 30 2
True Detective S04E05 Part 5 1080p HMAX WEB-DL DDP5 1 x264-NTb 28 4
True Detective S04E05 1080p HEVC x265-MeGusta 108 9
True Detective S04E05 Night Country Part 5 1080p WEBRip HDR10 10Bit DDP5 1 HEVC-d3g 18 3

True Detective S04E05 - Night Country: Part 5

Summary:

As Prior digs into the links between Tsalal and mining company Silver Sky, Navarro rescues Leah from a local protest that has turned violent. At a meeting with Silver Sky exec Kate McKitterick, Danvers balks when Connelly shares the official cause of the Tsalal men's deaths – and gets a warning against pursuing the case any further. Later, Hank receives a quid pro quo offer.



True Detective S04E05 Night Country Part 5 1080p AMZN WEB-DL DDP5 1 H 264-NTb EZTV
True Detective S4E5 Screenshot


General
Unique ID: 155040712418714386040800308532524266733 (0x74A3C14BEA71F88633BE02C26EB2B4ED)
Complete name: True.Detective.S04E05.Night.Country.Part.5.1080p.AMZN.WEB-DL.DDP5.1.H.264-NTb.mkv
Format: Matroska
Format version: Version 4
File size: 4.40 GiB
Duration: 1 h 3 min
Overall bit rate: 9 981 kb/s
Frame rate: 23.976 FPS
Writing application: mkvmerge v81.0 ('Milliontown') 64-bit
Writing library: libebml v1.4.4 + libmatroska v1.7.1

Video
ID: 1
Format: AVC
Format/Info: Advanced Video Codec
Format profile: High@L4
Format settings: CABAC / 4 Ref Frames
Format settings, CABAC: Yes
Format settings, Reference frames: 4 frames
Codec ID: V_MPEG4/ISO/AVC
Duration: 1 h 3 min
Bit rate mode: Constant
Bit rate: 9 337 kb/s
Nominal bit rate: 10 000 kb/s
Width: 1 920 pixels
Height: 960 pixels
Display aspect ratio: 2.000
Frame rate mode: Constant
Frame rate: 23.976 (24000/1001) FPS
Color space: YUV
Chroma subsampling: 4:2:0
Bit depth: 8 bits
Scan type: Progressive
Bits/(Pixel*Frame): 0.211
Stream size: 4.11 GiB (94%)
Default: Yes
Forced: No
Color range: Limited
Color primaries: BT.709
Transfer characteristics: BT.709
Matrix coefficients: BT.709

Audio
ID: 2
Format: E-AC-3 JOC
Format/Info: Enhanced AC-3 with Joint Object Coding
Commercial name: Dolby Digital Plus with Dolby Atmos
Codec ID: A_EAC3
Duration: 1 h 3 min
Bit rate mode: Constant
Bit rate: 640 kb/s
Channel(s): 6 channels
Channel layout: L R C LFE Ls Rs
Sampling rate: 48.0 kHz
Frame rate: 31.250 FPS (1536 SPF)
Compression mode: Lossy
Stream size: 289 MiB (6%)
Language: English
Service kind: Complete Main
Default: Yes
Forced: No
Complexity index: 16
Number of dynamic objects: 15
Bed channel count: 1 channel
Bed channel configuration: LFE

Text #1
ID: 3
Format: UTF-8
Codec ID: S_TEXT/UTF8
Codec ID/Info: UTF-8 Plain Text
Duration: 1 h 1 min
Bit rate: 45 b/s
Frame rate: 0.160 FPS
Count of elements: 589
Stream size: 20.6 KiB (0%)
Language: English (US)
Default: No
Forced: No

Text #2
ID: 4
Format: UTF-8
Codec ID: S_TEXT/UTF8
Codec ID/Info: UTF-8 Plain Text
Duration: 1 h 2 min
Bit rate: 60 b/s
Frame rate: 0.249 FPS
Count of elements: 939
Stream size: 27.6 KiB (0%)
Title: SDH
Language: English (US)
Default: No
Forced: No

Text #3
ID: 5
Format: UTF-8
Codec ID: S_TEXT/UTF8
Codec ID/Info: UTF-8 Plain Text
Duration: 1 h 1 min
Bit rate: 70 b/s
Frame rate: 0.156 FPS
Count of elements: 575
Stream size: 31.6 KiB (0%)
Language: Bulgarian (BG)
Default: No
Forced: No

Text #4
ID: 6
Format: UTF-8
Codec ID: S_TEXT/UTF8
Codec ID/Info: UTF-8 Plain Text
Duration: 1 h 2 min
Bit rate: 43 b/s
Frame rate: 0.163 FPS
Count of elements: 608
Stream size: 19.8 KiB (0%)
Language: Czech (CZ)
Default: No
Forced: No

Text #5
ID: 7
Format: UTF-8
Codec ID: S_TEXT/UTF8
Codec ID/Info: UTF-8 Plain Text
Duration: 1 h 1 min
Bit rate: 42 b/s
Frame rate: 0.149 FPS
Count of elements: 546
Stream size: 19.0 KiB (0%)
Language: Danish (DK)
Default: No
Forced: No

Text #6
ID: 8
Format: UTF-8
Codec ID: S_TEXT/UTF8
Codec ID/Info: UTF-8 Plain Text
Duration: 1 h 0 min
Bit rate: 43 b/s
Frame rate: 0.199 FPS
Count of elements: 722
Stream size: 19.4 KiB (0%)
Title: Spanish (Latin America)
Language: Spanish (Latin America)
Default: No
Forced: No

Text #7
ID: 9
Format: UTF-8
Codec ID: S_TEXT/UTF8
Codec ID/Info: UTF-8 Plain Text
Duration: 1 h 0 min
Bit rate: 44 b/s
Frame rate: 0.182 FPS
Count of elements: 663
Stream size: 19.5 KiB (0%)
Title: Spanish (Spain)
Language: Spanish (ES)
Default: No
Forced: No

Text #8
ID: 10
Format: UTF-8
Codec ID: S_TEXT/UTF8
Codec ID/Info: UTF-8 Plain Text
Duration: 1 h 1 min
Bit rate: 41 b/s
Frame rate: 0.147 FPS
Count of elements: 542
Stream size: 18.7 KiB (0%)
Language: Estonian (EE)
Default: No
Forced: No

Text #9
ID: 11
Format: UTF-8
Codec ID: S_TEXT/UTF8
Codec ID/Info: UTF-8 Plain Text
Duration: 1 h 1 min
Bit rate: 47 b/s
Frame rate: 0.147 FPS
Count of elements: 540
Stream size: 21.3 KiB (0%)
Language: Finnish (FI)
Default: No
Forced: No

Text #10
ID: 12
Format: UTF-8
Codec ID: S_TEXT/UTF8
Codec ID/Info: UTF-8 Plain Text
Duration: 1 h 1 min
Bit rate: 37 b/s
Frame rate: 0.142 FPS
Count of elements: 520
Stream size: 16.8 KiB (0%)
Language: Croatian (HR)
Default: No
Forced: No

Text #11
ID: 13
Format: UTF-8
Codec ID: S_TEXT/UTF8
Codec ID/Info: UTF-8 Plain Text
Duration: 1 h 1 min
Bit rate: 42 b/s
Frame rate: 0.162 FPS
Count of elements: 595
Stream size: 19.0 KiB (0%)
Language: Hungarian (HU)
Default: No
Forced: No

Text #12
ID: 14
Format: UTF-8
Codec ID: S_TEXT/UTF8
Codec ID/Info: UTF-8 Plain Text
Duration: 1 h 1 min
Bit rate: 38 b/s
Frame rate: 0.149 FPS
Count of elements: 547
Stream size: 17.5 KiB (0%)
Language: Lithuanian (LT)
Default: No
Forced: No

Text #13
ID: 15
Format: UTF-8
Codec ID: S_TEXT/UTF8
Codec ID/Info: UTF-8 Plain Text
Duration: 1 h 1 min
Bit rate: 41 b/s
Frame rate: 0.149 FPS
Count of elements: 546
Stream size: 18.8 KiB (0%)
Language: Latvian (LV)
Default: No
Forced: No

Text #14
ID: 16
Format: UTF-8
Codec ID: S_TEXT/UTF8
Codec ID/Info: UTF-8 Plain Text
Duration: 1 h 1 min
Bit rate: 63 b/s
Frame rate: 0.142 FPS
Count of elements: 520
Stream size: 28.5 KiB (0%)
Language: Macedonian (MK)
Default: No
Forced: No

Text #15
ID: 17
Format: UTF-8
Codec ID: S_TEXT/UTF8
Codec ID/Info: UTF-8 Plain Text
Duration: 1 h 1 min
Bit rate: 42 b/s
Frame rate: 0.149 FPS
Count of elements: 546
Stream size: 18.8 KiB (0%)
Language: Dutch (NL)
Default: No
Forced: No

Text #16
ID: 18
Format: UTF-8
Codec ID: S_TEXT/UTF8
Codec ID/Info: UTF-8 Plain Text
Duration: 1 h 1 min
Bit rate: 41 b/s
Frame rate: 0.143 FPS
Count of elements: 525
Stream size: 18.8 KiB (0%)
Language: Norwegian (NO)
Default: No
Forced: No

Text #17
ID: 19
Format: UTF-8
Codec ID: S_TEXT/UTF8
Codec ID/Info: UTF-8 Plain Text
Duration: 1 h 1 min
Bit rate: 34 b/s
Frame rate: 0.144 FPS
Count of elements: 531
Stream size: 15.5 KiB (0%)
Language: Polish (PL)
Default: No
Forced: No

Text #18
ID: 20
Format: UTF-8
Codec ID: S_TEXT/UTF8
Codec ID/Info: UTF-8 Plain Text
Duration: 1 h 2 min
Bit rate: 44 b/s
Frame rate: 0.207 FPS
Count of elements: 771
Stream size: 20.3 KiB (0%)
Title: Portuguese (Brazil)
Language: Portuguese (BR)
Default: No
Forced: No

Text #19
ID: 21
Format: UTF-8
Codec ID: S_TEXT/UTF8
Codec ID/Info: UTF-8 Plain Text
Duration: 1 h 1 min
Bit rate: 42 b/s
Frame rate: 0.147 FPS
Count of elements: 541
Stream size: 19.2 KiB (0%)
Title: Portuguese (Portugal)
Language: Portuguese (PT)
Default: No
Forced: No

Text #20
ID: 22
Format: UTF-8
Codec ID: S_TEXT/UTF8
Codec ID/Info: UTF-8 Plain Text
Duration: 1 h 1 min
Bit rate: 42 b/s
Frame rate: 0.158 FPS
Count of elements: 582
Stream size: 18.9 KiB (0%)
Language: Romanian (RO)
Default: No
Forced: No

Text #21
ID: 23
Format: UTF-8
Codec ID: S_TEXT/UTF8
Codec ID/Info: UTF-8 Plain Text
Duration: 1 h 0 min
Bit rate: 41 b/s
Frame rate: 0.163 FPS
Count of elements: 593
Stream size: 18.5 KiB (0%)
Language: Slovak (SK)
Default: No
Forced: No

Text #22
ID: 24
Format: UTF-8
Codec ID: S_TEXT/UTF8
Codec ID/Info: UTF-8 Plain Text
Duration: 1 h 1 min
Bit rate: 35 b/s
Frame rate: 0.142 FPS
Count of elements: 521
Stream size: 16.1 KiB (0%)
Language: Slovenian (SI)
Default: No
Forced: No

Text #23
ID: 25
Format: UTF-8
Codec ID: S_TEXT/UTF8
Codec ID/Info: UTF-8 Plain Text
Duration: 1 h 1 min
Bit rate: 37 b/s
Frame rate: 0.142 FPS
Count of elements: 520
Stream size: 16.6 KiB (0%)
Language: Serbian-Latn-RS
Default: No
Forced: No

Text #24
ID: 26
Format: UTF-8
Codec ID: S_TEXT/UTF8
Codec ID/Info: UTF-8 Plain Text
Duration: 1 h 1 min
Bit rate: 44 b/s
Frame rate: 0.143 FPS
Count of elements: 524
Stream size: 20.1 KiB (0%)
Language: Swedish (SE)
Default: No
Forced: No

Menu
00:00:00.000: en:Chapter 1
00:02:24.686: en:Intro
00:03:30.336: en:Chapter 2
00:12:38.424: en:Chapter 3
00:26:52.068: en:Chapter 4
00:40:42.106: en:Chapter 5
00:50:22.602: en:Chapter 6
01:02:04.637: en:Credits
01:02:58.066: en:Chapter 7

ssl  EZTV RSS EZTV Status | EZTV API | DMCA: [email protected]