eztv.wf | eztvstatus.org
Search title:  
TV Packs only
 

Gold Rush S14E20 Waking the Beast 1080p AMZN WEB-DL DDP2 0 H 264-NTb EZTV

Episode Breakdown
Gold Rush: Alaska
Gold Rush: Alaska TV Show S14E20

Season: 14
Episode: 20
Air Date: 9 February, 2024
Download Links
     Torrent Download     Magnet Download
     Anonymous Download
Added 2 months ago by eztv (verified).
Tracker Statistics
Seeds: 14
Peers: 0
Stats generated @ 00:26 on 21st Apr 2024
Torrent Info
Torrent File: Gold.Rush.S14E20.Waking.the.Beast.1080p.AMZN.WEB-DL.DDP2.0.H.264-NTb[EZTVx.to].mkv
Torrent Hash: E080CD083B305DD0639C239D0721AF2CFE1E395F
Filesize: 3.34 GB
Released: 10th Feb 2024

File Format: MKV (Matroska)
Resolution: 1920x1080 px
Aspect Ratio: 16:9
Alternate Releases S L
Gold Rush S14E20 1080p WEB h264-EDITH 68 4
Gold Rush S14E20 XviD-AFG 20 2
Gold Rush S14E20 Waking the Beast 720p AMZN WEB-DL DDP2 0 H 264-NTb 12 2
Gold Rush S14E20 1080p HEVC x265-MeGusta 21 2

Gold Rush: Alaska S14E20 - Waking the Beast

Summary:

Tony tries to resurrect his infamous Dredge #1. Parker brings in his last gold from Australia Creek and focuses the team on finishing the Money Pit. The McCaughans hunt for a new hotspot.



Gold Rush S14E20 Waking the Beast 1080p AMZN WEB-DL DDP2 0 H 264-NTb EZTV
Gold Rush: Alaska S14E20 Screenshot


General
Unique ID: 139779439284121465071199182009402078940 (0x69288A70144E556AE06B74EC7A6B36DC)
Complete name: Gold.Rush.S14E20.Waking.the.Beast.1080p.AMZN.WEB-DL.DDP2.0.H.264-NTb.mkv
Format: Matroska
Format version: Version 4
File size: 3.34 GiB
Duration: 48 min 7 s
Overall bit rate: 9 927 kb/s
Frame rate: 25.000 FPS
Writing application: mkvmerge v81.0 ('Milliontown') 64-bit
Writing library: libebml v1.4.4 + libmatroska v1.7.1

Video
ID: 1
Format: AVC
Format/Info: Advanced Video Codec
Format profile: High@L4
Format settings: CABAC / 4 Ref Frames
Format settings, CABAC: Yes
Format settings, Reference frames: 4 frames
Codec ID: V_MPEG4/ISO/AVC
Duration: 48 min 7 s
Bit rate mode: Constant
Bit rate: 10 000 kb/s
Width: 1 920 pixels
Height: 1 080 pixels
Display aspect ratio: 16:9
Frame rate mode: Constant
Frame rate: 25.000 FPS
Color space: YUV
Chroma subsampling: 4:2:0
Bit depth: 8 bits
Scan type: Progressive
Bits/(Pixel*Frame): 0.193
Stream size: 3.26 GiB (98%)
Default: Yes
Forced: No
Color range: Limited
Color primaries: BT.709
Transfer characteristics: BT.709
Matrix coefficients: BT.709

Audio
ID: 2
Format: E-AC-3
Format/Info: Enhanced AC-3
Commercial name: Dolby Digital Plus
Codec ID: A_EAC3
Duration: 48 min 6 s
Bit rate mode: Constant
Bit rate: 224 kb/s
Channel(s): 2 channels
Channel layout: L R
Sampling rate: 48.0 kHz
Frame rate: 31.250 FPS (1536 SPF)
Compression mode: Lossy
Stream size: 77.1 MiB (2%)
Language: English (US)
Service kind: Complete Main
Default: Yes
Forced: No

Text #1
ID: 3
Format: UTF-8
Codec ID: S_TEXT/UTF8
Codec ID/Info: UTF-8 Plain Text
Duration: 47 min 38 s
Bit rate: 72 b/s
Frame rate: 0.242 FPS
Count of elements: 693
Stream size: 25.4 KiB (0%)
Language: English (US)
Default: No
Forced: No

Text #2
ID: 4
Format: UTF-8
Codec ID: S_TEXT/UTF8
Codec ID/Info: UTF-8 Plain Text
Duration: 47 min 50 s
Bit rate: 77 b/s
Frame rate: 0.252 FPS
Count of elements: 723
Stream size: 27.0 KiB (0%)
Title: SDH
Language: English (US)
Default: No
Forced: No

ssl  EZTV RSS EZTV Status | EZTV API | DMCA: [email protected]