eztv.wf | eztvstatus.org
Search title:  
TV Packs only
 

Curb Your Enthusiasm S12E02 The Lawn Jockey 720p MAX WEB-DL DDP5 1 x264-NTb EZTV

Episode Breakdown
Curb Your Enthusiasm
Curb Your Enthusiasm TV Show S12E02

Season: 12
Episode: 2
Air Date: 11 February, 2024
Download Links
     Torrent Download     Magnet Download
     Anonymous Download
Added 2 months ago by eztv (verified).
Tracker Statistics
Seeds: 9
Peers: 2
Stats generated @ 09:14 on 20th Apr 2024
Torrent Info
Torrent File: Curb.Your.Enthusiasm.S12E02.The.Lawn.Jockey.720p.MAX.WEB-DL.DDP5.1.x264-NTb[EZTVx.to].mkv
Torrent Hash: A6F9EF784E1885570BB71AF8FD96525FA0A7018F
Filesize: 637 MB
Released: 12th Feb 2024

File Format: MKV (Matroska)
Resolution: 1280x720 px
Aspect Ratio: 16:9
Alternate Releases S L
Curb Your Enthusiasm S12E02 1080p WEB H264-SuccessfulCrab 256 30
Curb Your Enthusiasm S12E02 The Lawn Jockey 1080p MAX WEB-DL DDP5 1 x264-NTb 39 4
Curb Your Enthusiasm S12E02 The Lawn Jockey 720p AMZN WEB-DL DDP5 1 H 264-NTb 16 5
Curb Your Enthusiasm S12E02 The Lawn Jockey 1080p AMZN WEB-DL DDP5 1 H 264-NTb 14 2
Curb Your Enthusiasm S12E02 1080p HEVC x265-MeGusta 66 2
Curb Your Enthusiasm S12E02 XviD-AFG 8 3
Curb Your Enthusiasm S12E02 MULTi 1080p WEB H264-AMB3R 5 4

Curb Your Enthusiasm S12E02 - The Lawn Jockey

Summary:

Still in Atlanta, Larry finds himself stuck at a rental home with a questionable lawn ornament. Meanwhile Jeff pays the price for taking Larry's advice for Susie's birthday gift.



Curb Your Enthusiasm S12E02 The Lawn Jockey 720p MAX WEB-DL DDP5 1 x264-NTb EZTV
Curb Your Enthusiasm S12E2 Screenshot


General
Unique ID: 316470612675708184846452718171350783173 (0xEE1605DFDBFC42CECA682E98663254C5)
Complete name: Curb.Your.Enthusiasm.S12E02.The.Lawn.Jockey.720p.MAX.WEB-DL.DDP5.1.x264-NTb.mkv
Format: Matroska
Format version: Version 4
File size: 637 MiB
Duration: 32 min 49 s
Overall bit rate mode: Variable
Overall bit rate: 2 711 kb/s
Frame rate: 23.976 FPS
Writing application: mkvmerge v81.0 ('Milliontown') 64-bit
Writing library: libebml v1.4.4 + libmatroska v1.7.1

Video
ID: 1
Format: AVC
Format/Info: Advanced Video Codec
Format profile: [email protected]
Format settings: CABAC / 4 Ref Frames
Format settings, CABAC: Yes
Format settings, Reference frames: 4 frames
Codec ID: V_MPEG4/ISO/AVC
Duration: 32 min 49 s
Bit rate mode: Variable
Bit rate: 2 067 kb/s
Maximum bit rate: 4 000 kb/s
Width: 1 280 pixels
Height: 720 pixels
Display aspect ratio: 16:9
Frame rate mode: Constant
Frame rate: 23.976 (24000/1001) FPS
Color space: YUV
Chroma subsampling: 4:2:0
Bit depth: 8 bits
Scan type: Progressive
Bits/(Pixel*Frame): 0.094
Stream size: 485 MiB (76%)
Writing library: x264 core 164
Encoding settings: cabac=1 / ref=4 / deblock=1:0:0 / analyse=0x3:0x133 / me=umh / subme=10 / psy=1 / psy_rd=1.00:0.00 / mixed_ref=1 / me_range=24 / chroma_me=1 / trellis=2 / 8x8dct=1 / cqm=0 / deadzone=21,11 / fast_pskip=1 / chroma_qp_offset=-2 / threads=22 / lookahead_threads=1 / sliced_threads=0 / nr=0 / decimate=1 / interlaced=0 / bluray_compat=0 / stitchable=1 / constrained_intra=0 / bframes=3 / b_pyramid=2 / b_adapt=2 / b_bias=0 / direct=3 / weightb=1 / open_gop=0 / weightp=2 / keyint=96 / keyint_min=49 / scenecut=0 / intra_refresh=0 / rc_lookahead=96 / rc=crf / mbtree=1 / crf=21.0 / qcomp=0.60 / qpmin=0 / qpmax=69 / qpstep=4 / vbv_maxrate=4000 / vbv_bufsize=16000 / crf_max=0.0 / nal_hrd=vbr / filler=0 / ip_ratio=1.40 / aq=1:1.00
Default: Yes
Forced: No
Color range: Limited
Color primaries: BT.709
Transfer characteristics: BT.709
Matrix coefficients: BT.709

Audio
ID: 2
Format: E-AC-3
Format/Info: Enhanced AC-3
Commercial name: Dolby Digital Plus
Codec ID: A_EAC3
Duration: 32 min 49 s
Bit rate mode: Constant
Bit rate: 640 kb/s
Channel(s): 6 channels
Channel layout: L R C LFE Ls Rs
Sampling rate: 48.0 kHz
Frame rate: 31.250 FPS (1536 SPF)
Compression mode: Lossy
Stream size: 150 MiB (24%)
Language: English
Service kind: Complete Main
Default: Yes
Forced: No

Text #1
ID: 3
Format: UTF-8
Codec ID: S_TEXT/UTF8
Codec ID/Info: UTF-8 Plain Text
Duration: 31 min 22 s
Bit rate: 97 b/s
Frame rate: 0.296 FPS
Count of elements: 557
Stream size: 22.5 KiB (0%)
Language: English (US)
Default: No
Forced: No

Text #2
ID: 4
Format: UTF-8
Codec ID: S_TEXT/UTF8
Codec ID/Info: UTF-8 Plain Text
Duration: 32 min 41 s
Bit rate: 121 b/s
Frame rate: 0.440 FPS
Count of elements: 863
Stream size: 29.1 KiB (0%)
Title: SDH
Language: English (US)
Default: No
Forced: No

Text #3
ID: 5
Format: UTF-8
Codec ID: S_TEXT/UTF8
Codec ID/Info: UTF-8 Plain Text
Duration: 31 min 39 s
Bit rate: 130 b/s
Frame rate: 0.277 FPS
Count of elements: 527
Stream size: 30.3 KiB (0%)
Language: Bulgarian (BG)
Default: No
Forced: No

Text #4
ID: 6
Format: UTF-8
Codec ID: S_TEXT/UTF8
Codec ID/Info: UTF-8 Plain Text
Duration: 31 min 32 s
Bit rate: 92 b/s
Frame rate: 0.296 FPS
Count of elements: 561
Stream size: 21.3 KiB (0%)
Language: Czech (CZ)
Default: No
Forced: No

Text #5
ID: 7
Format: UTF-8
Codec ID: S_TEXT/UTF8
Codec ID/Info: UTF-8 Plain Text
Duration: 32 min 35 s
Bit rate: 70 b/s
Frame rate: 0.196 FPS
Count of elements: 383
Stream size: 16.8 KiB (0%)
Language: Danish (DK)
Default: No
Forced: No

Text #6
ID: 8
Format: UTF-8
Codec ID: S_TEXT/UTF8
Codec ID/Info: UTF-8 Plain Text
Duration: 31 min 22 s
Bit rate: 93 b/s
Frame rate: 0.334 FPS
Count of elements: 628
Stream size: 21.5 KiB (0%)
Language: Spanish (Latin America)
Default: No
Forced: No

Text #7
ID: 9
Format: UTF-8
Codec ID: S_TEXT/UTF8
Codec ID/Info: UTF-8 Plain Text
Duration: 31 min 27 s
Bit rate: 79 b/s
Frame rate: 0.258 FPS
Count of elements: 486
Stream size: 18.3 KiB (0%)
Language: Finnish (FI)
Default: No
Forced: No

Text #8
ID: 10
Format: UTF-8
Codec ID: S_TEXT/UTF8
Codec ID/Info: UTF-8 Plain Text
Duration: 31 min 33 s
Bit rate: 75 b/s
Frame rate: 0.243 FPS
Count of elements: 461
Stream size: 17.5 KiB (0%)
Language: Croatian (HR)
Default: No
Forced: No

Text #9
ID: 11
Format: UTF-8
Codec ID: S_TEXT/UTF8
Codec ID/Info: UTF-8 Plain Text
Duration: 31 min 39 s
Bit rate: 89 b/s
Frame rate: 0.293 FPS
Count of elements: 557
Stream size: 20.7 KiB (0%)
Language: Hungarian (HU)
Default: No
Forced: No

Text #10
ID: 12
Format: UTF-8
Codec ID: S_TEXT/UTF8
Codec ID/Info: UTF-8 Plain Text
Duration: 31 min 33 s
Bit rate: 131 b/s
Frame rate: 0.243 FPS
Count of elements: 461
Stream size: 30.5 KiB (0%)
Language: Macedonian (MK)
Default: No
Forced: No

Text #11
ID: 13
Format: UTF-8
Codec ID: S_TEXT/UTF8
Codec ID/Info: UTF-8 Plain Text
Duration: 31 min 27 s
Bit rate: 81 b/s
Frame rate: 0.233 FPS
Count of elements: 439
Stream size: 18.7 KiB (0%)
Language: Dutch (NL)
Default: No
Forced: No

Text #12
ID: 14
Format: UTF-8
Codec ID: S_TEXT/UTF8
Codec ID/Info: UTF-8 Plain Text
Duration: 32 min 35 s
Bit rate: 68 b/s
Frame rate: 0.190 FPS
Count of elements: 372
Stream size: 16.4 KiB (0%)
Language: Norwegian (NO)
Default: No
Forced: No

Text #13
ID: 15
Format: UTF-8
Codec ID: S_TEXT/UTF8
Codec ID/Info: UTF-8 Plain Text
Duration: 32 min 14 s
Bit rate: 61 b/s
Frame rate: 0.333 FPS
Count of elements: 644
Stream size: 14.5 KiB (0%)
Language: Polish (PL)
Default: No
Forced: No

Text #14
ID: 16
Format: UTF-8
Codec ID: S_TEXT/UTF8
Codec ID/Info: UTF-8 Plain Text
Duration: 31 min 29 s
Bit rate: 92 b/s
Frame rate: 0.336 FPS
Count of elements: 634
Stream size: 21.3 KiB (0%)
Title: Portuguese (Brazil)
Language: Portuguese (BR)
Default: No
Forced: No

Text #15
ID: 17
Format: UTF-8
Codec ID: S_TEXT/UTF8
Codec ID/Info: UTF-8 Plain Text
Duration: 31 min 27 s
Bit rate: 91 b/s
Frame rate: 0.271 FPS
Count of elements: 511
Stream size: 21.1 KiB (0%)
Title: Portuguese (Portugal)
Language: Portuguese (PT)
Default: No
Forced: No

Text #16
ID: 18
Format: UTF-8
Codec ID: S_TEXT/UTF8
Codec ID/Info: UTF-8 Plain Text
Duration: 31 min 36 s
Bit rate: 84 b/s
Frame rate: 0.271 FPS
Count of elements: 515
Stream size: 19.5 KiB (0%)
Language: Romanian (RO)
Default: No
Forced: No

Text #17
ID: 19
Format: UTF-8
Codec ID: S_TEXT/UTF8
Codec ID/Info: UTF-8 Plain Text
Duration: 31 min 33 s
Bit rate: 73 b/s
Frame rate: 0.243 FPS
Count of elements: 461
Stream size: 17.0 KiB (0%)
Language: Slovenian (SI)
Default: No
Forced: No

Text #18
ID: 20
Format: UTF-8
Codec ID: S_TEXT/UTF8
Codec ID/Info: UTF-8 Plain Text
Duration: 31 min 33 s
Bit rate: 78 b/s
Frame rate: 0.243 FPS
Count of elements: 461
Stream size: 18.1 KiB (0%)
Language: Serbian-Latn-RS
Default: No
Forced: No

Text #19
ID: 21
Format: UTF-8
Codec ID: S_TEXT/UTF8
Codec ID/Info: UTF-8 Plain Text
Duration: 32 min 35 s
Bit rate: 71 b/s
Frame rate: 0.190 FPS
Count of elements: 372
Stream size: 17.0 KiB (0%)
Language: Swedish (SE)
Default: No
Forced: No

Menu
00:00:00.000: Chapter 1
00:09:41.914: Chapter 2
00:18:39.785: Chapter 3
00:31:36.561: Credits
00:32:49.592: Chapter 4

ssl  EZTV RSS EZTV Status | EZTV API | DMCA: [email protected]