eztv.wf | eztvstatus.org
Search title:  
TV Packs only
 

Murdoch Mysteries S17E16 720p x264-FENiX EZTV

Episode Breakdown
Murdoch Mysteries
Murdoch Mysteries TV Show S17E16

Season: 17
Episode: 16
Air Date: 12 February, 2024
Download Links
     Torrent Download     Magnet Download
     Anonymous Download
Added 2 months ago by eztv (verified).
Tracker Statistics
Seeds: 0
Peers: 1
Stats generated @ 09:33 on 20th Apr 2024
Torrent Info
Torrent File: Murdoch.Mysteries.S17E16.720p.x264-FENiX[EZTVx.to].mkv
Torrent Hash: 609B079F1C05660437D6C1B7E0B95BC6E006875D
Filesize: 509 MB
Released: 12th Feb 2024

File Format: MKV (Matroska)
Resolution: 1280x720 px
Aspect Ratio: 16:9
Alternate Releases S L
Murdoch Mysteries S17E16 720p WEBRip x264-BAE 6 3
Murdoch Mysteries S17E16 1080p WEBRip x264-BAE 15 1
Murdoch Mysteries S17E16 720p HEVC x265-MeGusta 0 1
Murdoch Mysteries S17E16 1080p HEVC x265-MeGusta 13 2
Murdoch Mysteries S17E16 480p x264-mSD 2 5
Murdoch Mysteries S17E16 720p x265-T0PAZ 0 0
Murdoch Mysteries S17E16 XviD-AFG 5 4

Murdoch Mysteries S17E16 - Preacher Jimmy Wilde

Summary:

Murdoch suspects the sudden death of a man at a gospel revival is connected to a fiery charlatan preacher and nun.



Murdoch Mysteries S17E16 720p x264-FENiX EZTV
Murdoch Mysteries S17E16 Screenshot


General
Unique ID: 268508716398522528109809699933594704712 (0xCA00E5D13EF50D436F9AA7641E25DB48)
Complete name: Murdoch.Mysteries.S17E16.720p.x264-FENiX.mkv
Format: Matroska
Format version: Version 4
File size: 509 MiB
Duration: 44 min 12 s
Overall bit rate: 1 608 kb/s
Frame rate: 23.976 FPS
Movie name: Murdoch.Mysteries.S17E16
Writing application: Lavf60.16.100
Writing library: Lavf60.16.100
Comment: FENiX-Mon-12-Feb-2024,20:01:46,720p,22,fast,N,4752588,1920,1080,1.78
ErrorDetectionType: Per level 1

Video
ID: 1
Format: AVC
Format/Info: Advanced Video Codec
Format profile: [email protected]
Format settings: CABAC / 4 Ref Frames
Format settings, CABAC: Yes
Format settings, Reference frames: 4 frames
Codec ID: V_MPEG4/ISO/AVC
Duration: 44 min 12 s
Bit rate: 1 128 kb/s
Width: 1 280 pixels
Height: 720 pixels
Display aspect ratio: 16:9
Frame rate mode: Constant
Frame rate: 23.976 (24000/1001) FPS
Color space: YUV
Chroma subsampling: 4:2:0
Bit depth: 8 bits
Scan type: Progressive
Bits/(Pixel*Frame): 0.051
Stream size: 357 MiB (70%)
Writing library: x264 core 164
Encoding settings: cabac=1 / ref=2 / deblock=1:0:0 / analyse=0x3:0x113 / me=hex / subme=6 / psy=1 / psy_rd=1.00:0.00 / mixed_ref=1 / me_range=16 / chroma_me=1 / trellis=1 / 8x8dct=1 / cqm=0 / deadzone=21,11 / fast_pskip=1 / chroma_qp_offset=-2 / threads=22 / lookahead_threads=3 / sliced_threads=0 / nr=0 / decimate=1 / interlaced=0 / bluray_compat=0 / constrained_intra=0 / bframes=3 / b_pyramid=2 / b_adapt=1 / b_bias=0 / direct=1 / weightb=1 / open_gop=0 / weightp=1 / keyint=250 / keyint_min=23 / scenecut=40 / intra_refresh=0 / rc_lookahead=30 / rc=crf / mbtree=1 / crf=22.0 / qcomp=0.60 / qpmin=0 / qpmax=69 / qpstep=4 / ip_ratio=1.40 / aq=1:1.00
Default: Yes
Forced: No
Color range: Limited
Matrix coefficients: BT.709

Audio
ID: 2
Format: AC-3
Format/Info: Audio Coding 3
Commercial name: Dolby Digital
Codec ID: A_AC3
Duration: 44 min 12 s
Bit rate mode: Constant
Bit rate: 448 kb/s
Channel(s): 6 channels
Channel layout: L R C LFE Ls Rs
Sampling rate: 48.0 kHz
Frame rate: 31.250 FPS (1536 SPF)
Bit depth: 32 bits
Compression mode: Lossy
Stream size: 142 MiB (28%)
Writing library: Lavc60.31.102 ac3
Language: English
Service kind: Complete Main
Default: Yes
Forced: No

Text
ID: 3
Format: UTF-8
Codec ID: S_TEXT/UTF8
Codec ID/Info: UTF-8 Plain Text
Duration: 43 min 43 s
Language: English
Default: No
Forced: No

ssl  EZTV RSS EZTV Status | EZTV API | DMCA: [email protected]