eztv.wf | eztvstatus.org
Search title:  
TV Packs only
 

Tracker 2024 S01E01 Klamath Falls 1080p AMZN WEB-DL DDP5 1 H 264-NTb EZTV

Episode Breakdown
Tracker
Tracker TV Show S01E01

Season: 1
Episode: 1
Air Date: 11 February, 2024
Download Links
     Torrent Download     Magnet Download
     Anonymous Download
Added 2 months ago by eztv (verified).
Tracker Statistics
Seeds: 6
Peers: 5
Stats generated @ 08:18 on 20th Apr 2024
Torrent Info
Torrent File: Tracker.2024.S01E01.Klamath.Falls.1080p.AMZN.WEB-DL.DDP5.1.H.264-NTb[EZTVx.to].mkv
Torrent Hash: 329DAA13F985EDD2EC1D4614F5E5440B7EC2DCD3
Filesize: 3.05 GB
Released: 13th Feb 2024

File Format: MKV (Matroska)
Resolution: 1920x1080 px
Aspect Ratio: 16:9
Alternate Releases S L
Tracker 2024 S01E01 1080p WEB h264-EDITH 62 11
Tracker 2024 S01E01 1080p HEVC x265-MeGusta 124 69
Tracker 2024 S01E01 XviD-AFG 20 3
Tracker 2024 S01E01 1080p x265-ELiTE 12 5
Tracker 2024 S01E01 720p x264-FENiX 9 7
Tracker 2024 S01E01 720p x265-T0PAZ 17 12
Tracker 2024 S01E01 Klamath Falls 720p AMZN WEB-DL DDP5 1 H 264-NTb 13 3

Tracker S01E01 - Klamath Falls

Summary:

Colter's handlers, Velma and Teddi Bruin, send him to Klamath Falls, Ore., to investigate the disappearance of 14-year-old Gil Brown who is suspected to have been taken by his birth dad with a criminal background. While pursuing a lead at a local burger joint based on intel from tech genius Bobby Exley, Colter finds himself in some trouble of his own requiring help from legal mind Reenie Greene.



Tracker 2024 S01E01 Klamath Falls 1080p AMZN WEB-DL DDP5 1 H 264-NTb EZTV
Tracker S1E1 Screenshot


General
Unique ID: 276167952125134686249134080798221579624 (0xCFC4034B4DB0217B916A38C27C36B568)
Complete name: Tracker.2024.S01E01.Klamath.Falls.1080p.AMZN.WEB-DL.DDP5.1.H.264-NTb.mkv
Format: Matroska
Format version: Version 4
File size: 3.05 GiB
Duration: 43 min 35 s
Overall bit rate: 10.0 Mb/s
Frame rate: 23.976 FPS
Writing application: mkvmerge v81.0 ('Milliontown') 64-bit
Writing library: libebml v1.4.4 + libmatroska v1.7.1

Video
ID: 1
Format: AVC
Format/Info: Advanced Video Codec
Format profile: High@L4
Format settings: CABAC / 4 Ref Frames
Format settings, CABAC: Yes
Format settings, Reference frames: 4 frames
Codec ID: V_MPEG4/ISO/AVC
Duration: 43 min 35 s
Bit rate mode: Constant
Bit rate: 9 389 kb/s
Nominal bit rate: 10 000 kb/s
Width: 1 920 pixels
Height: 1 080 pixels
Display aspect ratio: 16:9
Frame rate mode: Constant
Frame rate: 23.976 (24000/1001) FPS
Color space: YUV
Chroma subsampling: 4:2:0
Bit depth: 8 bits
Scan type: Progressive
Bits/(Pixel*Frame): 0.189
Stream size: 2.86 GiB (94%)
Default: Yes
Forced: No
Color range: Limited
Color primaries: BT.709
Transfer characteristics: BT.709
Matrix coefficients: BT.709

Audio
ID: 2
Format: E-AC-3
Format/Info: Enhanced AC-3
Commercial name: Dolby Digital Plus
Codec ID: A_EAC3
Duration: 43 min 35 s
Bit rate mode: Constant
Bit rate: 640 kb/s
Channel(s): 6 channels
Channel layout: L R C LFE Ls Rs
Sampling rate: 48.0 kHz
Frame rate: 31.250 FPS (1536 SPF)
Compression mode: Lossy
Stream size: 200 MiB (6%)
Language: English (US)
Service kind: Complete Main
Default: Yes
Forced: No

Text #1
ID: 3
Format: UTF-8
Codec ID: S_TEXT/UTF8
Codec ID/Info: UTF-8 Plain Text
Duration: 43 min 0 s
Bit rate: 79 b/s
Frame rate: 0.346 FPS
Count of elements: 893
Stream size: 25.2 KiB (0%)
Language: English (US)
Default: No
Forced: No

Text #2
ID: 4
Format: UTF-8
Codec ID: S_TEXT/UTF8
Codec ID/Info: UTF-8 Plain Text
Duration: 43 min 0 s
Bit rate: 83 b/s
Frame rate: 0.364 FPS
Count of elements: 939
Stream size: 26.4 KiB (0%)
Title: SDH
Language: English (US)
Default: No
Forced: No
ssl  EZTV RSS EZTV Status | EZTV API | DMCA: [email protected]