eztv.wf | eztvstatus.org
Search title:  
TV Packs only
 

Branding in Seongsu S01E14 1080p friDay WEB-DL AAC2 0 H 264-CHDWEB EZTV

Episode Breakdown
Branding in Seongsu
Branding in Seongsu TV Show S01E14

Season: 1
Episode: 14
Air Date: 27 February, 2024
Download Links
     Torrent Download     Magnet Download
     Anonymous Download
Added 3 months ago by eztv (verified).
Tracker Statistics
Seeds: 1
Peers: 0
Stats generated @ 13:52 on 29th May 2024
Torrent Info
Torrent File: Branding.in.Seongsu.S01E14.1080p.friDay.WEB-DL.AAC2.0.H.264-CHDWEB[EZTVx.to].mkv
Torrent Hash: 0FBA28217A001A2F11A0738CE3847B79FCF9DEAB
Filesize: 1.43 GB
Released: 27th Feb 2024

File Format: MKV (Matroska)
Resolution: 1920x1080 px
Aspect Ratio: 16:9

Branding in Seongsu S01E14 - Episode 14

Summary:
Branding in Seongsu S01E14 1080p friDay WEB-DL AAC2 0 H 264-CHDWEB EZTV
Branding in Seongsu S1E14 Screenshot


General
Unique ID: 29922738090937879321295239394438235455 (0x1682E8E41D1DCF16E69B93A2E1F5453F)
Complete name: Branding.in.Seongsu.S01E14.1080p.friDay.WEB-DL.AAC2.0.H.264-CHDWEB.mkv
Format: Matroska
Format version: Version 4
File size: 1.43 GiB
Duration: 26 min 49 s
Overall bit rate: 7 652 kb/s
Frame rate: 29.970 FPS
Movie name: Branding in Seongsu S01E14
Writing application: mkvmerge v78.0 ('Running') 64-bit
Writing library: libebml v1.4.4 + libmatroska v1.7.1

Video
ID: 1
Format: AVC
Format/Info: Advanced Video Codec
Format profile: [email protected]
Format settings: CABAC / 1 Ref Frames
Format settings, CABAC: Yes
Format settings, Reference frames: 1 frame
Format settings, GOP: M=1, N=60
Codec ID: V_MPEG4/ISO/AVC
Duration: 26 min 49 s
Bit rate mode: Constant
Bit rate: 7 523 kb/s
Nominal bit rate: 8 000 kb/s
Width: 1 920 pixels
Height: 1 080 pixels
Display aspect ratio: 16:9
Frame rate mode: Constant
Frame rate: 29.970 (30000/1001) FPS
Color space: YUV
Chroma subsampling: 4:2:0
Bit depth: 8 bits
Scan type: Progressive
Bits/(Pixel*Frame): 0.121
Stream size: 1.41 GiB (98%)
Language: def
Default: Yes
Forced: No

Audio
ID: 2
Format: AAC LC
Format/Info: Advanced Audio Codec Low Complexity
Codec ID: A_AAC-2
Duration: 26 min 49 s
Bit rate: 125 kb/s
Channel(s): 2 channels
Channel layout: L R
Sampling rate: 48.0 kHz
Frame rate: 46.875 FPS (1024 SPF)
Compression mode: Lossy
Stream size: 24.1 MiB (2%)
Language: Korean
Default: Yes
Forced: No

Text
ID: 3
Format: UTF-8
Codec ID: S_TEXT/UTF8
Codec ID/Info: UTF-8 Plain Text
Duration: 26 min 43 s
Bit rate: 49 b/s
Frame rate: 0.240 FPS
Count of elements: 384
Stream size: 9.77 KiB (0%)
Title: Traditional
Language: Chinese (Traditional)
Default: No
Forced: No

ssl  EZTV RSS EZTV Status | EZTV API | DMCA: [email protected]