eztv.wf | eztvstatus.org
Search title:  
TV Packs only
 

Izakaya Shinkansen S02E01 2024 1080p Hami WEB-DL H264 AAC-HHWEB EZTV

Episode Breakdown
#Izakaya Shinkansen
#Izakaya Shinkansen TV Show S02E01

Season: 2
Episode: 1
Download Links
     Torrent Download     Magnet Download
     Anonymous Download
Added 3 months ago by eztv (verified).
Tracker Statistics
Seeds: 1
Peers: 0
Stats generated @ 14:10 on 29th May 2024
Torrent Info
Torrent File: Izakaya.Shinkansen.S02E01.2024.1080p.Hami.WEB-DL.H264.AAC-HHWEB[EZTVx.to].mkv
Torrent Hash: 7A65899B4CC5BD6591B724810201A55EEB176C3A
Filesize: 1.34 GB
Released: 28th Feb 2024

File Format: MKV (Matroska)
Resolution: 1920x1080 px
Aspect Ratio: 16:9

Episode Description
Izakaya Shinkansen S02E01 2024 1080p Hami WEB-DL H264 AAC-HHWEB EZTV
#Izakaya Shinkansen S2E1 Screenshot


General
Unique ID: 216608579355334501398027767993782935227 (0xA2F54B7FD27AB2842ADD7EEF50269EBB)
Complete name: Izakaya.Shinkansen.S02E01.2024.1080p.Hami.WEB-DL.H264.AAC-HHWEB.mkv
Format: Matroska
Format version: Version 4
File size: 1.34 GiB
Duration: 24 min 13 s
Overall bit rate: 7 940 kb/s
Frame rate: 29.970 FPS
Encoded date: 2024-02-28 12:50:02 UTC
Writing application: mkvmerge v78.0 ('Running') 64-bit
Writing library: libebml v1.4.4 + libmatroska v1.7.1

Video
ID: 1
Format: AVC
Format/Info: Advanced Video Codec
Format profile: High@L4
Format settings: CABAC / 3 Ref Frames
Format settings, CABAC: Yes
Format settings, Reference frames: 3 frames
Format settings, GOP: M=1, N=30
Codec ID: V_MPEG4/ISO/AVC
Duration: 24 min 13 s
Bit rate: 7 872 kb/s
Width: 1 920 pixels
Height: 1 080 pixels
Display aspect ratio: 16:9
Frame rate mode: Constant
Frame rate: 29.970 (30000/1001) FPS
Color space: YUV
Chroma subsampling: 4:2:0
Bit depth: 8 bits
Scan type: Progressive
Bits/(Pixel*Frame): 0.127
Stream size: 1.32 GiB (98%)
Writing library: x264 core 157 r2935 545de2f
Encoding settings: cabac=1 / ref=3 / deblock=1:0:0 / analyse=0x3:0x113 / me=hex / subme=7 / psy=1 / psy_rd=1.00:0.00 / mixed_ref=1 / me_range=16 / chroma_me=1 / trellis=1 / 8x8dct=1 / cqm=0 / deadzone=21,11 / fast_pskip=1 / chroma_qp_offset=-2 / threads=34 / lookahead_threads=5 / sliced_threads=0 / nr=0 / decimate=1 / interlaced=0 / bluray_compat=0 / constrained_intra=0 / bframes=0 / weightp=2 / keyint=30 / keyint_min=16 / scenecut=0 / intra_refresh=0 / rc_lookahead=30 / rc=abr / mbtree=1 / bitrate=7872 / ratetol=1.0 / qcomp=0.60 / qpmin=0 / qpmax=69 / qpstep=4 / vbv_maxrate=8000 / vbv_bufsize=7872 / nal_hrd=none / filler=0 / ip_ratio=1.40 / aq=1:1.00
Default: Yes
Forced: No

Audio
ID: 2
Format: AAC LC
Format/Info: Advanced Audio Codec Low Complexity
Codec ID: A_AAC-2
Duration: 24 min 13 s
Bit rate: 128 kb/s
Channel(s): 2 channels
Channel layout: L R
Sampling rate: 48.0 kHz
Frame rate: 46.875 FPS (1024 SPF)
Compression mode: Lossy
Stream size: 22.2 MiB (2%)
Default: Yes
Forced: No
ssl  EZTV RSS EZTV Status | EZTV API | DMCA: [email protected]