eztv.wf | eztvstatus.org
Search title:  
TV Packs only
 

True Detective S04E05 Night Country Part 5 1080p WEBRip HDR10 10Bit DDP5 1 HEVC-d3g EZTV

Episode Breakdown
True Detective
True Detective TV Show S04E05

Season: 4
Episode: 5
Air Date: 11 February, 2024
Download Links
     Torrent Download     Magnet Download
     Anonymous Download
Added 2 months ago by eztv (verified).
Tracker Statistics
Seeds: 18
Peers: 3
Stats generated @ 14:11 on 29th May 2024
Torrent Info
Torrent File: True.Detective.S04E05.Night.Country.Part.5.1080p.WEBRip.HDR10.10Bit.DDP5.1.HEVC-d3g[EZTVx.to].mkv
Torrent Hash: CB7419D2C3203CFE4A175E24ED4744029A6EEA79
Filesize: 4.95 GB
Released: 1st Mar 2024

File Format: MKV (Matroska)
Resolution: 1920x1080 px
Aspect Ratio: 16:9
Alternate Releases S L
True Detective S04E05 1080p WEB h264-ETHEL 320 4
True Detective S04E05 XviD-AFG 36 2
True Detective S04E05 Night Country Part 5 1080p AMZN WEB-DL DDP5 1 H 264-NTb 24 3
True Detective S04E05 Night Country Part 5 720p AMZN WEB-DL DDP5 1 H 264-NTb 30 2
True Detective S04E05 Part 5 1080p HMAX WEB-DL DDP5 1 x264-NTb 28 4
True Detective S04E05 1080p HEVC x265-MeGusta 108 9

True Detective S04E05 - Night Country: Part 5

Summary:

As Prior digs into the links between Tsalal and mining company Silver Sky, Navarro rescues Leah from a local protest that has turned violent. At a meeting with Silver Sky exec Kate McKitterick, Danvers balks when Connelly shares the official cause of the Tsalal men's deaths – and gets a warning against pursuing the case any further. Later, Hank receives a quid pro quo offer.



True Detective S04E05 Night Country Part 5 1080p WEBRip HDR10 10Bit DDP5 1 HEVC-d3g EZTV
True Detective S4E5 Screenshot


General
Unique ID: 185617862308272667295961266395429496368 (0x8BA4B32E2BCC884B9BB8E47231346630)
Complete name: True.Detective.S04E05.Night.Country.Part.5.1080p.WEBRip.HDR10.10Bit.DDP5.1.HEVC-d3g.mkv
Format: Matroska
Format version: Version 2
File size: 4.95 GiB
Duration: 1 h 3 min
Overall bit rate: 11.2 Mb/s
Frame rate: 23.976 FPS
Movie name: True.Detective.S04E05.Night.Country.Part.5.1080p.WEBRip.HDR10.10Bit.DDP5.1.HEVC-d3g
Encoded date: 2024-02-19 19:43:55 UTC
Writing application: DVDFab 12.1.1.5
Writing library: libebml v1.4.2 + libmatroska v1.6.3

Video
ID: 1
Format: HEVC
Format/Info: High Efficiency Video Coding
Format profile: Main [email protected]@High
HDR format: SMPTE ST 2086, HDR10 compatible
Codec ID: V_MPEGH/ISO/HEVC
Duration: 1 h 3 min
Bit rate: 10.5 Mb/s
Width: 1 920 pixels
Height: 960 pixels
Display aspect ratio: 2.000
Frame rate mode: Constant
Frame rate: 23.976 (24000/1001) FPS
Color space: YUV
Chroma subsampling: 4:2:0 (Type 2)
Bit depth: 10 bits
Bits/(Pixel*Frame): 0.238
Stream size: 4.64 GiB (94%)
Default: Yes
Forced: No
Color range: Limited
Color primaries: BT.2020
Transfer characteristics: PQ
Matrix coefficients: BT.2020 non-constant
Mastering display color primaries: Display P3
Mastering display luminance: min: 0.0001 cd/m2, max: 1000 cd/m2
Maximum Content Light Level: 651 cd/m2
Maximum Frame-Average Light Level: 133 cd/m2

Audio
ID: 2
Format: E-AC-3 JOC
Format/Info: Enhanced AC-3 with Joint Object Coding
Commercial name: Dolby Digital Plus with Dolby Atmos
Codec ID: A_EAC3
Duration: 1 h 3 min
Bit rate mode: Constant
Bit rate: 640 kb/s
Channel(s): 6 channels
Channel layout: L R C LFE Ls Rs
Sampling rate: 48.0 kHz
Frame rate: 31.250 FPS (1536 SPF)
Compression mode: Lossy
Stream size: 289 MiB (6%)
Language: English
Service kind: Complete Main
Default: Yes
Forced: No
Complexity index: 16
Number of dynamic objects: 15
Bed channel count: 1 channel
Bed channel configuration: LFE

Text #1
ID: 3
Format: PGS
Codec ID: S_HDMV/PGS
Codec ID/Info: Picture based subtitle format used on BDs/HD-DVDs
Duration: 59 min 37 s
Bit rate: 27.3 kb/s
Frame rate: 0.385 FPS
Count of elements: 1376
Stream size: 11.7 MiB (0%)
Language: English
Default: Yes
Forced: No

Text #2
ID: 4
Format: PGS
Codec ID: S_HDMV/PGS
Codec ID/Info: Picture based subtitle format used on BDs/HD-DVDs
Duration: 1 h 2 min
Bit rate: 33.9 kb/s
Frame rate: 0.498 FPS
Count of elements: 1878
Stream size: 15.2 MiB (0%)
Language: English
Default: No
Forced: No

Menu
00:00:00.000: en:Chapter 1
00:02:24.686: en:Chapter 2
00:03:30.336: en:Chapter 2
00:12:38.424: en:Chapter 3
00:26:52.068: en:Chapter 4
00:40:42.106: en:Chapter 5
00:50:22.602: en:Chapter 6
01:02:04.637: en:Chapter 8
01:02:58.066: en:Chapter 7

ssl  EZTV RSS EZTV Status | EZTV API | DMCA: [email protected]