eztv.wf | eztvstatus.org
Search title:  
TV Packs only
 

Branding in Seongsu S01E21 2024 1080p FriDay WEB-DL H264 AAC-HHWEB EZTV

Episode Breakdown
Branding in Seongsu
Branding in Seongsu TV Show S01E21

Season: 1
Episode: 21
Air Date: 11 March, 2024
Download Links
     Torrent Download     Magnet Download
     Anonymous Download
Added 2 months ago by eztv (verified).
Tracker Statistics
Seeds: 1
Peers: 1
Stats generated @ 13:58 on 29th May 2024
Torrent Info
Torrent File: Branding.in.Seongsu.S01E21.2024.1080p.FriDay.WEB-DL.H264.AAC-HHWEB[EZTVx.to].mkv
Torrent Hash: 8E40259ED29EDA162BCC51B6C1E3B3DC50692289
Filesize: 1.51 GB
Released: 11th Mar 2024

File Format: MKV (Matroska)
Resolution: 1920x1080 px
Aspect Ratio: 16:9

Branding in Seongsu S01E21 - Episode 21

Summary:
Branding in Seongsu S01E21 2024 1080p FriDay WEB-DL H264 AAC-HHWEB EZTV
Branding in Seongsu S1E21 Screenshot


General
Unique ID: 134963996672674771114237845774843388348 (0x65891EC96633E7F761693C48C14621BC)
Complete name: Branding.in.Seongsu.S01E21.2024.1080p.FriDay.WEB-DL.H264.AAC-HHWEB.mkv
Format: Matroska
Format version: Version 4
File size: 1.51 GiB
Duration: 28 min 33 s
Overall bit rate: 7 588 kb/s
Frame rate: 29.970 FPS
Encoded date: 2024-03-11 10:49:12 UTC
Writing application: mkvmerge v78.0 ('Running') 64-bit
Writing library: libebml v1.4.4 + libmatroska v1.7.1

Video
ID: 1
Format: AVC
Format/Info: Advanced Video Codec
Format profile: [email protected]
Format settings: CABAC / 1 Ref Frames
Format settings, CABAC: Yes
Format settings, Reference frames: 1 frame
Format settings, GOP: M=1, N=60
Codec ID: V_MPEG4/ISO/AVC
Duration: 28 min 33 s
Bit rate mode: Constant
Bit rate: 7 460 kb/s
Nominal bit rate: 8 000 kb/s
Width: 1 920 pixels
Height: 1 080 pixels
Display aspect ratio: 16:9
Frame rate mode: Constant
Frame rate: 29.970 (30000/1001) FPS
Color space: YUV
Chroma subsampling: 4:2:0
Bit depth: 8 bits
Scan type: Progressive
Bits/(Pixel*Frame): 0.120
Stream size: 1.49 GiB (98%)
Default: Yes
Forced: No

Audio
ID: 2
Format: AAC LC
Format/Info: Advanced Audio Codec Low Complexity
Codec ID: A_AAC-2
Duration: 28 min 33 s
Bit rate: 125 kb/s
Channel(s): 2 channels
Channel layout: L R
Sampling rate: 48.0 kHz
Frame rate: 46.875 FPS (1024 SPF)
Compression mode: Lossy
Stream size: 25.6 MiB (2%)
Default: No
Forced: No

Text #1
ID: 3
Format: UTF-8
Codec ID: S_TEXT/UTF8
Codec ID/Info: UTF-8 Plain Text
Duration: 28 min 27 s
Bit rate: 61 b/s
Frame rate: 0.252 FPS
Count of elements: 430
Stream size: 12.9 KiB (0%)
Title: Simplified
Language: Chinese (Simplified)
Default: Yes
Forced: No

Text #2
ID: 4
Format: UTF-8
Codec ID: S_TEXT/UTF8
Codec ID/Info: UTF-8 Plain Text
Duration: 28 min 27 s
Bit rate: 61 b/s
Frame rate: 0.252 FPS
Count of elements: 430
Stream size: 12.9 KiB (0%)
Title: Traditional
Language: Chinese (Traditional)
Default: No
Forced: No

ssl  EZTV RSS EZTV Status | EZTV API | DMCA: [email protected]