eztv.wf | eztvstatus.org
Search title:  
TV Packs only
 

Angels Fall Sometimes S01E17 2024 1080p WEB-DL H264 AAC-HHWEB EZTV

Episode Breakdown
Angels Fall Sometimes
Angels Fall Sometimes TV Show S01E17

Season: 1
Episode: 17
Air Date: 16 March, 2024
Download Links
     Torrent Download     Magnet Download
     Anonymous Download
Added 2 months ago by eztv (verified).
Tracker Statistics
Seeds: 0
Peers: 1
Stats generated @ 14:01 on 29th May 2024
Torrent Info
Torrent File: Angels.Fall.Sometimes.S01E17.2024.1080p.WEB-DL.H264.AAC-HHWEB[EZTVx.to].mkv
Torrent Hash: 32A5C7A62450F74EE5DE84C93CF7BF4202CA3D00
Filesize: 409 MB
Released: 16th Mar 2024

File Format: MKV (Matroska)
Resolution: 1920x1080 px
Aspect Ratio: 16:9

Angels Fall Sometimes S01E17 - Episode 17

Summary:
Angels Fall Sometimes S01E17 2024 1080p WEB-DL H264 AAC-HHWEB EZTV
Angels Fall Sometimes S1E17 Screenshot


General
Unique ID: 332471072947966590756660431293466932693 (0xFA1F99790C6D5A66DCEBB7584BB5F5D5)
Complete name: Angels.Fall.Sometimes.S01E17.2024.1080p.WEB-DL.H264.AAC-HHWEB.mkv
Format: Matroska
Format version: Version 4
File size: 409 MiB
Duration: 45 min 35 s
Overall bit rate: 1 253 kb/s
Frame rate: 25.000 FPS
Encoded date: 2024-03-15 11:30:07 UTC
Writing application: mkvmerge v78.0 ('Running') 64-bit
Writing library: libebml v1.4.4 + libmatroska v1.7.1

Video
ID: 1
Format: AVC
Format/Info: Advanced Video Codec
Format profile: High@L4
Format settings: CABAC / 4 Ref Frames
Format settings, CABAC: Yes
Format settings, Reference frames: 4 frames
Codec ID: V_MPEG4/ISO/AVC
Duration: 45 min 35 s
Bit rate: 1 158 kb/s
Width: 1 920 pixels
Height: 1 080 pixels
Display aspect ratio: 16:9
Frame rate mode: Constant
Frame rate: 25.000 FPS
Color space: YUV
Chroma subsampling: 4:2:0
Bit depth: 8 bits
Scan type: Progressive
Bits/(Pixel*Frame): 0.022
Stream size: 377 MiB (92%)
Language: Chinese (CH)
Default: Yes
Forced: No
Color range: Limited
Color primaries: BT.709
Matrix coefficients: BT.709

Audio
ID: 2
Format: AAC LC
Format/Info: Advanced Audio Codec Low Complexity
Codec ID: A_AAC-2
Duration: 45 min 35 s
Bit rate: 93.4 kb/s
Channel(s): 2 channels
Channel layout: L R
Sampling rate: 48.0 kHz
Frame rate: 46.875 FPS (1024 SPF)
Compression mode: Lossy
Stream size: 30.4 MiB (7%)
Title: zh-ch [AAC 2.0]
Language: Chinese (CH)
Default: Yes
Forced: No
ssl  EZTV RSS EZTV Status | EZTV API | DMCA: [email protected]