eztv.wf | eztvstatus.org
Search title:  
TV Packs only
 

Angels Fall Sometimes S01E22 2024 1080p WEB-DL H264 AAC-HHWEB EZTV

Episode Breakdown
Angels Fall Sometimes
Angels Fall Sometimes TV Show S01E22

Season: 1
Episode: 22
Air Date: 19 March, 2024
Download Links
     Torrent Download     Magnet Download
     Anonymous Download
Added 2 months ago by eztv (verified).
Tracker Statistics
Seeds: 1
Peers: 1
Stats generated @ 14:09 on 29th May 2024
Torrent Info
Torrent File: Angels.Fall.Sometimes.S01E22.2024.1080p.WEB-DL.H264.AAC-HHWEB[EZTVx.to].mkv
Torrent Hash: B73D279D71CAFFBD1E79E4B43F9FD91B41C33D77
Filesize: 476 MB
Released: 19th Mar 2024

File Format: MKV (Matroska)
Resolution: 1920x1080 px
Aspect Ratio: 16:9

Angels Fall Sometimes S01E22 - Episode 22

Summary:
Angels Fall Sometimes S01E22 2024 1080p WEB-DL H264 AAC-HHWEB EZTV
Angels Fall Sometimes S1E22 Screenshot


General
Unique ID: 10504820918988280083954275593458786837 (0x7E727A8A12095AA35A3D569B65BA215)
Complete name: Angels.Fall.Sometimes.S01E22.2024.1080p.WEB-DL.H264.AAC-HHWEB.mkv
Format: Matroska
Format version: Version 4
File size: 476 MiB
Duration: 45 min 35 s
Overall bit rate: 1 460 kb/s
Frame rate: 25.000 FPS
Encoded date: 2024-03-18 11:27:16 UTC
Writing application: mkvmerge v78.0 ('Running') 64-bit
Writing library: libebml v1.4.4 + libmatroska v1.7.1

Video
ID: 1
Format: AVC
Format/Info: Advanced Video Codec
Format profile: High@L4
Format settings: CABAC / 4 Ref Frames
Format settings, CABAC: Yes
Format settings, Reference frames: 4 frames
Codec ID: V_MPEG4/ISO/AVC
Duration: 45 min 35 s
Bit rate: 1 364 kb/s
Width: 1 920 pixels
Height: 1 080 pixels
Display aspect ratio: 16:9
Frame rate mode: Constant
Frame rate: 25.000 FPS
Color space: YUV
Chroma subsampling: 4:2:0
Bit depth: 8 bits
Scan type: Progressive
Bits/(Pixel*Frame): 0.026
Stream size: 445 MiB (93%)
Language: Chinese (CH)
Default: Yes
Forced: No
Color range: Limited
Color primaries: BT.709
Matrix coefficients: BT.709

Audio
ID: 2
Format: AAC LC
Format/Info: Advanced Audio Codec Low Complexity
Codec ID: A_AAC-2
Duration: 45 min 35 s
Bit rate: 93.4 kb/s
Channel(s): 2 channels
Channel layout: L R
Sampling rate: 48.0 kHz
Frame rate: 46.875 FPS (1024 SPF)
Compression mode: Lossy
Stream size: 30.4 MiB (6%)
Title: zh-ch [AAC 2.0]
Language: Chinese (CH)
Default: Yes
Forced: No
ssl  EZTV RSS EZTV Status | EZTV API | DMCA: [email protected]