eztv.wf | eztvstatus.org
Search title:  
TV Packs only
 

Off the Cuff S02E07 Americas Experimental City Arcosanti 720p AMZN WEB-DL DDP2 0 H 264-NTb EZTV

Episode Breakdown
Off the Cuf
Off the Cuf TV Show S02E07

Season: 2
Episode: 7
Download Links
     Torrent Download     Magnet Download
     Anonymous Download
Added 2 months ago by eztv (verified).
Tracker Statistics
Seeds: 1
Peers: 0
Stats generated @ 14:24 on 29th May 2024
Torrent Info
Torrent File: Off the Cuff S02E07 Americas Experimental City Arcosanti 720p AMZN WEB-DL DDP2 0 H 264-NTb[EZTVx.to].mkv
Torrent Hash: C228121BBF740405D0DC46799DB33D23154B6AAC
Filesize: 1.25 GB
Released: 26th Mar 2024

File Format: MKV (Matroska)
Resolution: 1280x720 px
Aspect Ratio: 16:9

Episode Description
Off the Cuff S02E07 Americas Experimental City Arcosanti 720p AMZN WEB-DL DDP2 0 H 264-NTb EZTV
Off the Cuf S2E7 Screenshot


General
Unique ID: 271013083260227890596913110023818249539 (0xCBE338A2FF97FF41D9E599DA62990543)
Complete name: Off the Cuff S02E07 Americas Experimental City Arcosanti 720p AMZN WEB-DL DDP2 0 H 264-NTb.mkv
Format: Matroska
Format version: Version 4
File size: 1.25 GiB
Duration: 32 min 18 s
Overall bit rate: 5 520 kb/s
Frame rate: 24.000 FPS
Writing application: mkvmerge v79.0 ('Funeral Pyres') 64-bit
Writing library: libebml v1.4.4 + libmatroska v1.7.1

Video
ID: 1
Format: AVC
Format/Info: Advanced Video Codec
Format profile: [email protected]
Format settings: CABAC / 4 Ref Frames
Format settings, CABAC: Yes
Format settings, Reference frames: 4 frames
Codec ID: V_MPEG4/ISO/AVC
Duration: 32 min 18 s
Bit rate mode: Constant
Bit rate: 5 294 kb/s
Nominal bit rate: 6 000 kb/s
Width: 1 280 pixels
Height: 720 pixels
Display aspect ratio: 16:9
Frame rate mode: Constant
Frame rate: 24.000 FPS
Color space: YUV
Chroma subsampling: 4:2:0
Bit depth: 8 bits
Scan type: Progressive
Bits/(Pixel*Frame): 0.239
Stream size: 1.19 GiB (96%)
Default: Yes
Forced: No
Color range: Limited
Color primaries: BT.709
Transfer characteristics: BT.709
Matrix coefficients: BT.709

Audio
ID: 2
Format: E-AC-3
Format/Info: Enhanced AC-3
Commercial name: Dolby Digital Plus
Codec ID: A_EAC3
Duration: 32 min 18 s
Bit rate mode: Constant
Bit rate: 224 kb/s
Channel(s): 2 channels
Channel layout: L R
Sampling rate: 48.0 kHz
Frame rate: 31.250 FPS (1536 SPF)
Compression mode: Lossy
Stream size: 51.8 MiB (4%)
Language: English (US)
Service kind: Complete Main
Default: Yes
Forced: No

Text #1
ID: 3
Format: UTF-8
Codec ID: S_TEXT/UTF8
Codec ID/Info: UTF-8 Plain Text
Duration: 32 min 12 s
Bit rate: 105 b/s
Frame rate: 0.331 FPS
Count of elements: 640
Stream size: 25.0 KiB (0%)
Language: English (US)
Default: No
Forced: No

Text #2
ID: 4
Format: UTF-8
Codec ID: S_TEXT/UTF8
Codec ID/Info: UTF-8 Plain Text
Duration: 32 min 14 s
Bit rate: 107 b/s
Frame rate: 0.336 FPS
Count of elements: 651
Stream size: 25.4 KiB (0%)
Title: SDH
Language: English (US)
Default: No
Forced: No
ssl  EZTV RSS EZTV Status | EZTV API | DMCA: [email protected]