eztv.wf | eztvstatus.org
Search title:  
TV Packs only
 

Will Trent S02E04 720p x264-FENiX EZTV

Episode Breakdown
Will Trent
Will Trent TV Show S02E04

Season: 2
Episode: 4
Air Date: 26 March, 2024
Download Links
     Torrent Download     Magnet Download
     Anonymous Download
Added 2 months ago by eztv (verified).
Tracker Statistics
Seeds: 2
Peers: 1
Stats generated @ 14:09 on 29th May 2024
Torrent Info
Torrent File: Will Trent S02E04 720p x264-FENiX[EZTVx.to].mkv
Torrent Hash: 116D93E68E828A0C30FDB3C6669A84B61292E185
Filesize: 627 MB
Released: 27th Mar 2024

File Format: MKV (Matroska)
Resolution: 1280x720 px
Aspect Ratio: 16:9
Alternate Releases S L
Will Trent S02E04 720p HDTV x264-SYNCOPY 16 4
Will Trent S02E04 720p HEVC x265-MeGusta 27 5
Will Trent S02E04 XviD-AFG 7 1
Will Trent S02E04 480p x264-mSD 20 7
Will Trent S02E04 1080p WEB h264-ELEANOR 8 4
Will Trent S02E04 1080p HEVC x265-MeGusta 30 7
Will Trent S02E04 720p x265-T0PAZ 7 2

Will Trent S02E04 - It's Easier to Handcuff a Human Being

Summary:

Will and Faith investigate a small town haunted by the "Boo Hag," where a suspect is quickly assumed, but connections to the past unveil unexpected surprises. Meanwhile, Ormewood investigates a TV star's murder, and Amanda senses impending danger.



Will Trent S02E04 720p x264-FENiX EZTV
Will Trent S2E4 Screenshot


General
Unique ID: 149868378370894127768579690918776038360 (0x70BF998A02BD20E0440955EB688A63D8)
Complete name: Will Trent S02E04 720p x264-FENiX.mkv
Format: Matroska
Format version: Version 4
File size: 627 MiB
Duration: 42 min 45 s
Overall bit rate: 2 050 kb/s
Frame rate: 23.976 FPS
Movie name: Will.Trent.S02E04
Writing application: Lavf60.16.100
Writing library: Lavf60.16.100
Comment: FENiX-Wed-27-Mar-2024,08:16:02,720p,22,fast,N,10880013,1920,1080,1.78
ErrorDetectionType: Per level 1

Video
ID: 1
Format: AVC
Format/Info: Advanced Video Codec
Format profile: [email protected]
Format settings: CABAC / 4 Ref Frames
Format settings, CABAC: Yes
Format settings, Reference frames: 4 frames
Codec ID: V_MPEG4/ISO/AVC
Duration: 42 min 45 s
Bit rate: 1 561 kb/s
Width: 1 280 pixels
Height: 720 pixels
Display aspect ratio: 16:9
Frame rate mode: Constant
Frame rate: 23.976 (24000/1001) FPS
Color space: YUV
Chroma subsampling: 4:2:0
Bit depth: 8 bits
Scan type: Progressive
Bits/(Pixel*Frame): 0.071
Stream size: 477 MiB (76%)
Writing library: x264 core 164
Encoding settings: cabac=1 / ref=2 / deblock=1:0:0 / analyse=0x3:0x113 / me=hex / subme=6 / psy=1 / psy_rd=1.00:0.00 / mixed_ref=1 / me_range=16 / chroma_me=1 / trellis=1 / 8x8dct=1 / cqm=0 / deadzone=21,11 / fast_pskip=1 / chroma_qp_offset=-2 / threads=22 / lookahead_threads=3 / sliced_threads=0 / nr=0 / decimate=1 / interlaced=0 / bluray_compat=0 / constrained_intra=0 / bframes=3 / b_pyramid=2 / b_adapt=1 / b_bias=0 / direct=1 / weightb=1 / open_gop=0 / weightp=1 / keyint=250 / keyint_min=23 / scenecut=40 / intra_refresh=0 / rc_lookahead=30 / rc=crf / mbtree=1 / crf=22.0 / qcomp=0.60 / qpmin=0 / qpmax=69 / qpstep=4 / ip_ratio=1.40 / aq=1:1.00
Default: Yes
Forced: No
Color range: Limited
Color primaries: BT.709
Transfer characteristics: BT.709
Matrix coefficients: BT.709

Audio
ID: 2
Format: AC-3
Format/Info: Audio Coding 3
Commercial name: Dolby Digital
Codec ID: A_AC3
Duration: 42 min 45 s
Bit rate mode: Constant
Bit rate: 448 kb/s
Channel(s): 6 channels
Channel layout: L R C LFE Ls Rs
Sampling rate: 48.0 kHz
Frame rate: 31.250 FPS (1536 SPF)
Bit depth: 32 bits
Compression mode: Lossy
Stream size: 137 MiB (22%)
Writing library: Lavc60.31.102 ac3
Language: English
Service kind: Complete Main
Default: Yes
Forced: No

Text
ID: 3
Format: UTF-8
Codec ID: S_TEXT/UTF8
Codec ID/Info: UTF-8 Plain Text
Duration: 41 min 46 s
Language: English
Default: No
Forced: No

ssl  EZTV RSS EZTV Status | EZTV API | DMCA: [email protected]