eztv.wf | eztvstatus.org
Search title:  
TV Packs only
 

The Legend of ShenLi S01E21 2024 1080p WEB-DL H264 AAC-HHWEB EZTV

Episode Breakdown
The Legend of ShenLi
The Legend of ShenLi TV Show S01E21

Season: 1
Episode: 21
Air Date: 28 March, 2024
Download Links
     Torrent Download     Magnet Download
     Anonymous Download
Added 2 months ago by eztv (verified).
Tracker Statistics
Seeds: 6
Peers: 2
Stats generated @ 16:15 on 29th May 2024
Torrent Info
Torrent File: The.Legend.of.ShenLi.S01E21.2024.1080p.WEB-DL.H264.AAC-HHWEB[EZTVx.to].mp4
Torrent Hash: 1AD6761554C1F908050A7FE2FCABCBCF7C17770F
Filesize: 647 MB
Released: 29th Mar 2024

File Format: MP4 (MPEG-4)
Resolution: 1920x1080 px
Aspect Ratio: 16:9

The Legend of ShenLi S01E21 - Episode 21

Summary:


The Legend of ShenLi S01E21 2024 1080p WEB-DL H264 AAC-HHWEB EZTV
The Legend of ShenLi S1E21 Screenshot


General
Complete name: The.Legend.of.ShenLi.S01E21.2024.1080p.WEB-DL.H264.AAC-HHWEB.mp4
Format: MPEG-4
Format profile: Base Media
Codec ID: isom (isom/iso2/avc1/mp41)
File size: 647 MiB
Duration: 43 min 52 s
Overall bit rate mode: Variable
Overall bit rate: 2 062 kb/s
Frame rate: 25.000 FPS
Writing application: Lavf60.10.100

Video
ID: 1
Format: AVC
Format/Info: Advanced Video Codec
Format profile: High@L4
Format settings: CABAC / 4 Ref Frames
Format settings, CABAC: Yes
Format settings, Reference frames: 4 frames
Codec ID: avc1
Codec ID/Info: Advanced Video Coding
Duration: 43 min 52 s
Source duration: 43 min 52 s
Bit rate: 1 962 kb/s
Width: 1 920 pixels
Height: 1 080 pixels
Display aspect ratio: 16:9
Frame rate mode: Variable
Frame rate: 25.000 FPS
Minimum frame rate: 24.993 FPS
Maximum frame rate: 25.007 FPS
Color space: YUV
Chroma subsampling: 4:2:0
Bit depth: 8 bits
Scan type: Progressive
Bits/(Pixel*Frame): 0.038
Stream size: 616 MiB (95%)
Source stream size: 616 MiB (95%)
Color range: Limited
Color primaries: BT.709
Transfer characteristics: BT.709
Matrix coefficients: BT.709
Codec configuration box: avcC

Audio
ID: 2
Format: AAC LC
Format/Info: Advanced Audio Codec Low Complexity
Codec ID: mp4a-40-2
Duration: 43 min 52 s
Bit rate mode: Variable
Bit rate: 93.4 kb/s
Maximum bit rate: 97.2 kb/s
Channel(s): 2 channels
Channel layout: L R
Sampling rate: 48.0 kHz
Frame rate: 46.875 FPS (1024 SPF)
Compression mode: Lossy
Stream size: 29.3 MiB (5%)
Default: Yes
Alternate group: 1

ssl  EZTV RSS EZTV Status | EZTV API | DMCA: [email protected]