eztv.wf | eztvstatus.org
Search title:  
TV Packs only
 

Haileys On It S01E42 Bad Bear Deay 1080p HULU WEB-DL DDP5 1 H 264-NTb EZTV

Episode Breakdown
Hailey's on It!
Hailey's on It! TV Show S01E42

Season: 1
Episode: 42
Download Links
     Torrent Download     Magnet Download
     Anonymous Download
Added 14 days ago by eztv (verified).
Tracker Statistics
Seeds: 0
Peers: 0
Stats generated @ 20:12 on 17th Apr 2024
Torrent Info
Torrent File: Haileys On It S01E42 Bad Bear Deay 1080p HULU WEB-DL DDP5 1 H 264-NTb[EZTVx.to].mkv
Torrent Hash: 852C17B32AA70CD1EA299AA323419ED4D4AE192B
Filesize: 347 MB
Released: 3rd Apr 2024

File Format: MKV (Matroska)
Resolution: 1920x1080 px
Aspect Ratio: 16:9
Alternate Releases S L
Haileys On It! S01E42 Bad Bear Deay 1080p HULU WEB-DL DDP5 1 H 264-NTb 4 1

Episode Description
Haileys On It S01E42 Bad Bear Deay 1080p HULU WEB-DL DDP5 1 H 264-NTb EZTV
Hailey's on It! S1E42 Screenshot


General
Unique ID: 176543788906004463834579662549294735649 (0x84D118D20A652F18130AB3AFFF776121)
Complete name: Haileys On It S01E42 Bad Bear Deay 1080p HULU WEB-DL DDP5 1 H 264-NTb.mkv
Format: Matroska
Format version: Version 4
File size: 347 MiB
Duration: 11 min 44 s
Overall bit rate: 4 132 kb/s
Frame rate: 23.976 FPS
Encoded date: 2024-03-31 00:58:29 UTC
Writing application: mkvmerge v83.0 ('Circle Of Friends') 64-bit
Writing library: libebml v1.4.5 + libmatroska v1.7.1

Video
ID: 1
Format: AVC
Format/Info: Advanced Video Codec
Format profile: High@L4
Format settings: CABAC / 4 Ref Frames
Format settings, CABAC: Yes
Format settings, Reference frames: 4 frames
Codec ID: V_MPEG4/ISO/AVC
Duration: 11 min 44 s
Bit rate: 3 873 kb/s
Width: 1 920 pixels
Height: 1 080 pixels
Display aspect ratio: 16:9
Frame rate mode: Constant
Frame rate: 23.976 (24000/1001) FPS
Color space: YUV
Chroma subsampling: 4:2:0
Bit depth: 8 bits
Scan type: Progressive
Bits/(Pixel*Frame): 0.078
Stream size: 325 MiB (94%)
Default: Yes
Forced: No

Audio
ID: 2
Format: E-AC-3
Format/Info: Enhanced AC-3
Commercial name: Dolby Digital Plus
Codec ID: A_EAC3
Duration: 11 min 44 s
Bit rate mode: Constant
Bit rate: 256 kb/s
Channel(s): 6 channels
Channel layout: L R C LFE Ls Rs
Sampling rate: 48.0 kHz
Frame rate: 31.250 FPS (1536 SPF)
Compression mode: Lossy
Stream size: 21.5 MiB (6%)
Language: English
Service kind: Complete Main
Default: Yes
Forced: No

Text #1
ID: 3
Format: UTF-8
Codec ID: S_TEXT/UTF8
Codec ID/Info: UTF-8 Plain Text
Duration: 11 min 41 s
Bit rate: 101 b/s
Frame rate: 0.381 FPS
Count of elements: 267
Stream size: 8.66 KiB (0%)
Language: English
Default: No
Forced: No

Text #2
ID: 4
Format: UTF-8
Codec ID: S_TEXT/UTF8
Codec ID/Info: UTF-8 Plain Text
Duration: 11 min 41 s
Bit rate: 117 b/s
Frame rate: 0.446 FPS
Count of elements: 313
Stream size: 10.0 KiB (0%)
Title: SDH
Language: English
Default: No
Forced: No

ssl  EZTV RSS EZTV Status | EZTV API | DMCA: [email protected]