eztv.wf | eztvstatus.org
Search title:  
TV Packs only
 

Vanderpump Rules S11E10 Line in the Sand 720p AMZN WEB-DL DDP2 0 H 264-NTb EZTV

Episode Breakdown
Vanderpump Rules
Vanderpump Rules TV Show S11E10

Season: 11
Episode: 10
Air Date: 2 April, 2024
Download Links
     Torrent Download     Magnet Download
     Anonymous Download
Added 14 days ago by eztv (verified).
Tracker Statistics
Seeds: 92
Peers: 12
Stats generated @ 20:38 on 17th Apr 2024
Torrent Info
Torrent File: Vanderpump Rules S11E10 Line in the Sand 720p AMZN WEB-DL DDP2 0 H 264-NTb[EZTVx.to].mkv
Torrent Hash: 93D24B4DC210B240FBD19962625469D7E93BF59C
Filesize: 1.40 GB
Released: 3rd Apr 2024

File Format: MKV (Matroska)
Resolution: 1280x720 px
Aspect Ratio: 16:9
Alternate Releases S L
Vanderpump Rules S11E10 1080p WEB h264-EDITH 47 3
Vanderpump Rules S11E10 XviD-AFG 5 3
Vanderpump Rules S11E10 1080p HEVC x265-MeGusta 21 6
Vanderpump Rules S11E10 480p x264-mSD 12 5

Vanderpump Rules S11E10 - Line in the Sand

Summary:
Vanderpump Rules S11E10 Line in the Sand 720p AMZN WEB-DL DDP2 0 H 264-NTb EZTV
Vanderpump Rules S11E10 Screenshot


General
Unique ID: 317047524535208748048145888329589671273 (0xEE8521D33F2F0B0701AD75FC34514569)
Complete name: Vanderpump Rules S11E10 Line in the Sand 720p AMZN WEB-DL DDP2 0 H 264-NTb.mkv
Format: Matroska
Format version: Version 4
File size: 1.40 GiB
Duration: 42 min 35 s
Overall bit rate: 4 702 kb/s
Frame rate: 23.976 FPS
Writing application: mkvmerge v81.0 ('Milliontown') 64-bit
Writing library: libebml v1.4.4 + libmatroska v1.7.1

Video
ID: 1
Format: AVC
Format/Info: Advanced Video Codec
Format profile: [email protected]
Format settings: CABAC / 4 Ref Frames
Format settings, CABAC: Yes
Format settings, Reference frames: 4 frames
Codec ID: V_MPEG4/ISO/AVC
Duration: 42 min 35 s
Bit rate mode: Constant
Bit rate: 4 475 kb/s
Nominal bit rate: 6 000 kb/s
Width: 1 280 pixels
Height: 720 pixels
Display aspect ratio: 16:9
Frame rate mode: Constant
Frame rate: 23.976 (24000/1001) FPS
Color space: YUV
Chroma subsampling: 4:2:0
Bit depth: 8 bits
Scan type: Progressive
Bits/(Pixel*Frame): 0.203
Stream size: 1.33 GiB (95%)
Default: Yes
Forced: No
Color range: Limited
Color primaries: BT.709
Transfer characteristics: BT.709
Matrix coefficients: BT.709

Audio
ID: 2
Format: E-AC-3
Format/Info: Enhanced AC-3
Commercial name: Dolby Digital Plus
Codec ID: A_EAC3
Duration: 42 min 35 s
Bit rate mode: Constant
Bit rate: 224 kb/s
Channel(s): 2 channels
Channel layout: L R
Sampling rate: 48.0 kHz
Frame rate: 31.250 FPS (1536 SPF)
Compression mode: Lossy
Stream size: 68.2 MiB (5%)
Language: English (US)
Service kind: Complete Main
Default: Yes
Forced: No

Text #1
ID: 3
Format: UTF-8
Codec ID: S_TEXT/UTF8
Codec ID/Info: UTF-8 Plain Text
Duration: 42 min 31 s
Bit rate: 123 b/s
Frame rate: 0.417 FPS
Count of elements: 1065
Stream size: 38.4 KiB (0%)
Language: English (US)
Default: No
Forced: No

Text #2
ID: 4
Format: UTF-8
Codec ID: S_TEXT/UTF8
Codec ID/Info: UTF-8 Plain Text
Duration: 42 min 31 s
Bit rate: 129 b/s
Frame rate: 0.437 FPS
Count of elements: 1114
Stream size: 40.3 KiB (0%)
Title: SDH
Language: English (US)
Default: No
Forced: No

ssl  EZTV RSS EZTV Status | EZTV API | DMCA: [email protected]