eztv.wf | eztvstatus.org
Search title:  
TV Packs only
 

The Good Doctor S07E05 Who At Peace 1080p AMZN WEB-DL DDP5 1 H 264-FLUX EZTV

Episode Breakdown
The Good Doctor
The Good Doctor TV Show S07E05

Season: 7
Episode: 5
Air Date: 2 April, 2024
Download Links
     Torrent Download     Magnet Download
     Anonymous Download
Added 14 days ago by eztv (verified).
Tracker Statistics
Seeds: 297
Peers: 33
Stats generated @ 20:30 on 17th Apr 2024
Torrent Info
Torrent File: The Good Doctor S07E05 Who At Peace 1080p AMZN WEB-DL DDP5 1 H 264-FLUX[EZTVx.to].mkv
Torrent Hash: 748E19FCBD9E9DA14894FB43BAE943F434CC9FC6
Filesize: 1.98 GB
Released: 3rd Apr 2024

File Format: MKV (Matroska)
Resolution: 1920x1080 px
Aspect Ratio: 16:9
Alternate Releases S L
The Good Doctor S07E05 720p HDTV x264-SYNCOPY 371 69
The Good Doctor S07E05 720p HEVC x265-MeGusta 49 11
The Good Doctor S07E05 480p x264-mSD 54 8
The Good Doctor S07E05 XviD-AFG 23 3
The Good Doctor S07E05 720p WEB h264-ELEANOR 20 3
The Good Doctor S07E05 1080p HEVC x265-MeGusta 74 31
The Good Doctor S07E05 1080p WEB h264-ELEANOR 11 0

The Good Doctor S07E05 - Who At Peace

Summary:

Asher's views on the construct of marriage complicate his future with Jerome. Meanwhile, Asher also briefly revisits his religious past to aid a patient's conversion to Judaism for his fiancée.



The Good Doctor S07E05 Who At Peace 1080p AMZN WEB-DL DDP5 1 H 264-FLUX EZTV
The Good Doctor S7E5 Screenshot


General
Unique ID: 294069599127466684820507856713000443631 (0xDD3BBEA2A6992F5D2921551449005EEF)
Complete name: The Good Doctor S07E05 Who At Peace 1080p AMZN WEB-DL DDP5 1 H 264-FLUX.mkv
Format: Matroska
Format version: Version 4
File size: 1.98 GiB
Duration: 43 min 10 s
Overall bit rate: 6 581 kb/s
Frame rate: 23.976 FPS
Writing application: mkvmerge v82.0 ('I'm The President') 64-bit
Writing library: libebml v1.4.5 + libmatroska v1.7.1

Video
ID: 1
Format: AVC
Format/Info: Advanced Video Codec
Format profile: High@L4
Format settings: CABAC / 4 Ref Frames
Format settings, CABAC: Yes
Format settings, Reference frames: 4 frames
Codec ID: V_MPEG4/ISO/AVC
Duration: 43 min 10 s
Bit rate mode: Constant
Bit rate: 5 939 kb/s
Nominal bit rate: 10 000 kb/s
Width: 1 920 pixels
Height: 1 080 pixels
Display aspect ratio: 16:9
Frame rate mode: Constant
Frame rate: 23.976 (24000/1001) FPS
Color space: YUV
Chroma subsampling: 4:2:0
Bit depth: 8 bits
Scan type: Progressive
Bits/(Pixel*Frame): 0.119
Stream size: 1.79 GiB (90%)
Language: English (US)
Default: Yes
Forced: No
Color range: Limited
Color primaries: BT.709
Transfer characteristics: BT.709
Matrix coefficients: BT.709

Audio
ID: 2
Format: E-AC-3
Format/Info: Enhanced AC-3
Commercial name: Dolby Digital Plus
Codec ID: A_EAC3
Duration: 43 min 10 s
Bit rate mode: Constant
Bit rate: 640 kb/s
Channel(s): 6 channels
Channel layout: L R C LFE Ls Rs
Sampling rate: 48.0 kHz
Frame rate: 31.250 FPS (1536 SPF)
Compression mode: Lossy
Stream size: 198 MiB (10%)
Language: English
Service kind: Complete Main
Default: Yes
Forced: No

Text #1
ID: 3
Format: UTF-8
Codec ID: S_TEXT/UTF8
Codec ID/Info: UTF-8 Plain Text
Duration: 42 min 19 s
Bit rate: 85 b/s
Frame rate: 0.323 FPS
Count of elements: 819
Stream size: 26.4 KiB (0%)
Language: English (US)
Default: No
Forced: No

Text #2
ID: 4
Format: UTF-8
Codec ID: S_TEXT/UTF8
Codec ID/Info: UTF-8 Plain Text
Duration: 42 min 31 s
Bit rate: 89 b/s
Frame rate: 0.335 FPS
Count of elements: 856
Stream size: 27.8 KiB (0%)
Title: SDH
Language: English (US)
Default: No
Forced: No

Menu
00:00:00.000: en:Scene 1
00:00:02.000: en:Recap
00:01:07.000: en:Scene 2
00:42:21.000: en:End Credits

ssl  EZTV RSS EZTV Status | EZTV API | DMCA: [email protected]