eztv.wf | eztvstatus.org
Search title:  
TV Packs only
 

The Rookie S06E05 The Vow 720p AMZN WEB-DL DDP5 1 H 264-FLUX EZTV

Episode Breakdown
The Rookie
The Rookie TV Show S06E05

Season: 6
Episode: 5
Air Date: 2 April, 2024
Download Links
     Torrent Download     Magnet Download
     Anonymous Download
Added 14 days ago by eztv (verified).
Tracker Statistics
Seeds: 53
Peers: 12
Stats generated @ 21:17 on 17th Apr 2024
Torrent Info
Torrent File: The Rookie S06E05 The Vow 720p AMZN WEB-DL DDP5 1 H 264-FLUX[EZTVx.to].mkv
Torrent Hash: 84E608817C53683157681668F225848382C53792
Filesize: 1.31 GB
Released: 3rd Apr 2024

File Format: MKV (Matroska)
Resolution: 1280x720 px
Aspect Ratio: 16:9
Alternate Releases S L
The Rookie S06E05 720p HDTV x264-SYNCOPY 309 92
The Rookie S06E05 480p x264-mSD 100 31
The Rookie S06E05 720p HEVC x265-MeGusta 108 88
The Rookie S06E05 1080p WEB h264-ELEANOR 29 18
The Rookie S06E05 1080p HEVC x265-MeGusta 150 19
The Rookie S06E05 XviD-AFG 44 6
The Rookie S06E05 720p x264-FENiX 20 5

The Rookie S06E05 - The Vow

Summary:

When a toddler is found at the scene of a crime, John and Bailey must decide whether to let the child go to a shelter for the night or care for her themselves. Meanwhile, when someone from his past returns, Tim disappears and leaves Lucy in the dark.



The Rookie S06E05 The Vow 720p AMZN WEB-DL DDP5 1 H 264-FLUX EZTV
The Rookie S6E5 Screenshot


General
Unique ID: 126597903401326566965473006481977468887 (0x5F3DDE8AD1EE55DF220DFF10066D67D7)
Complete name: The Rookie S06E05 The Vow 720p AMZN WEB-DL DDP5 1 H 264-FLUX.mkv
Format: Matroska
Format version: Version 4
File size: 1.31 GiB
Duration: 41 min 43 s
Overall bit rate: 4 507 kb/s
Frame rate: 23.976 FPS
Writing application: mkvmerge v82.0 ('I'm The President') 64-bit
Writing library: libebml v1.4.5 + libmatroska v1.7.1

Video
ID: 1
Format: AVC
Format/Info: Advanced Video Codec
Format profile: [email protected]
Format settings: CABAC / 4 Ref Frames
Format settings, CABAC: Yes
Format settings, Reference frames: 4 frames
Codec ID: V_MPEG4/ISO/AVC
Duration: 41 min 43 s
Bit rate mode: Constant
Bit rate: 3 865 kb/s
Nominal bit rate: 6 000 kb/s
Width: 1 280 pixels
Height: 720 pixels
Display aspect ratio: 16:9
Frame rate mode: Constant
Frame rate: 23.976 (24000/1001) FPS
Color space: YUV
Chroma subsampling: 4:2:0
Bit depth: 8 bits
Scan type: Progressive
Bits/(Pixel*Frame): 0.175
Stream size: 1.13 GiB (86%)
Language: English (US)
Default: Yes
Forced: No
Color range: Limited
Color primaries: BT.709
Transfer characteristics: BT.709
Matrix coefficients: BT.709

Audio
ID: 2
Format: E-AC-3
Format/Info: Enhanced AC-3
Commercial name: Dolby Digital Plus
Codec ID: A_EAC3
Duration: 41 min 43 s
Bit rate mode: Constant
Bit rate: 640 kb/s
Channel(s): 6 channels
Channel layout: L R C LFE Ls Rs
Sampling rate: 48.0 kHz
Frame rate: 31.250 FPS (1536 SPF)
Compression mode: Lossy
Stream size: 191 MiB (14%)
Language: English
Service kind: Complete Main
Default: Yes
Forced: No

Text #1
ID: 3
Format: UTF-8
Codec ID: S_TEXT/UTF8
Codec ID/Info: UTF-8 Plain Text
Duration: 41 min 36 s
Bit rate: 90 b/s
Frame rate: 0.378 FPS
Count of elements: 943
Stream size: 27.6 KiB (0%)
Language: English (US)
Default: No
Forced: No

Text #2
ID: 4
Format: UTF-8
Codec ID: S_TEXT/UTF8
Codec ID/Info: UTF-8 Plain Text
Duration: 41 min 36 s
Bit rate: 95 b/s
Frame rate: 0.410 FPS
Count of elements: 1024
Stream size: 29.2 KiB (0%)
Title: SDH
Language: English (US)
Default: No
Forced: No

Menu
00:00:00.000: en:Scene 1
00:41:03.000: en:End Credits

ssl  EZTV RSS EZTV Status | EZTV API | DMCA: [email protected]