eztv.wf | eztvstatus.org
Search title:  
TV Packs only
 

The Neighborhood S06E05 Welcome to the Front Window 720p AMZN WEB-DL DDP5 1 H 264-FLUX EZTV

Episode Breakdown
The Neighborhood
The Neighborhood TV Show S06E05

Season: 6
Episode: 5
Air Date: 25 March, 2024
Download Links
     Torrent Download     Magnet Download
     Anonymous Download
Added 14 days ago by eztv (verified).
Tracker Statistics
Seeds: 10
Peers: 2
Stats generated @ 20:49 on 17th Apr 2024
Torrent Info
Torrent File: The Neighborhood S06E05 Welcome to the Front Window 720p AMZN WEB-DL DDP5 1 H 264-FLUX[EZTVx.to].mkv
Torrent Hash: 6EE3AF565FBDE305B671C8CF6DF69625B8D94583
Filesize: 683 MB
Released: 3rd Apr 2024

File Format: MKV (Matroska)
Resolution: 1280x720 px
Aspect Ratio: 16:9
Alternate Releases S L
The Neighborhood S06E05 720p HDTV x264-SYNCOPY 43 0
The Neighborhood S06E05 Welcome to the Front Window 1080p AMZN WEB-DL DDP5 1 H 264-FLUX 2 4

The Neighborhood S06E05 - Welcome to the Front Window

Summary:

While Calvin is cooped up at home recovering, he begins spying on his neighbors from the window. He comes to believe that something sketchy is going on across the street, so the whole crew helps him figure out how to catch their new neighbor in the act.



The Neighborhood S06E05 Welcome to the Front Window 720p AMZN WEB-DL DDP5 1 H 264-FLUX EZTV
The Neighborhood S6E5 Screenshot


General
Unique ID: 193802346077734536623927574778331250319 (0x91CCF96292CA507D7171B07B0E67BE8F)
Complete name: The Neighborhood S06E05 Welcome to the Front Window 720p AMZN WEB-DL DDP5 1 H 264-FLUX.mkv
Format: Matroska
Format version: Version 4
File size: 683 MiB
Duration: 21 min 26 s
Overall bit rate: 4 457 kb/s
Frame rate: 23.976 FPS
Writing application: mkvmerge v82.0 ('I'm The President') 64-bit
Writing library: libebml v1.4.5 + libmatroska v1.7.1

Video
ID: 1
Format: AVC
Format/Info: Advanced Video Codec
Format profile: [email protected]
Format settings: CABAC / 4 Ref Frames
Format settings, CABAC: Yes
Format settings, Reference frames: 4 frames
Codec ID: V_MPEG4/ISO/AVC
Duration: 21 min 26 s
Bit rate mode: Constant
Bit rate: 4 000 kb/s
Width: 1 280 pixels
Height: 720 pixels
Display aspect ratio: 16:9
Frame rate mode: Constant
Frame rate: 23.976 (24000/1001) FPS
Color space: YUV
Chroma subsampling: 4:2:0
Bit depth: 8 bits
Scan type: Progressive
Bits/(Pixel*Frame): 0.181
Stream size: 585 MiB (86%)
Language: English (US)
Default: Yes
Forced: No
Color range: Limited
Color primaries: BT.709
Transfer characteristics: BT.709
Matrix coefficients: BT.709

Audio
ID: 2
Format: E-AC-3
Format/Info: Enhanced AC-3
Commercial name: Dolby Digital Plus
Codec ID: A_EAC3
Duration: 21 min 26 s
Bit rate mode: Constant
Bit rate: 640 kb/s
Channel(s): 6 channels
Channel layout: L R C LFE Ls Rs
Sampling rate: 48.0 kHz
Frame rate: 31.250 FPS (1536 SPF)
Compression mode: Lossy
Stream size: 98.1 MiB (14%)
Language: English (US)
Service kind: Complete Main
Default: Yes
Forced: No

Text #1
ID: 3
Format: UTF-8
Codec ID: S_TEXT/UTF8
Codec ID/Info: UTF-8 Plain Text
Duration: 21 min 1 s
Bit rate: 92 b/s
Frame rate: 0.379 FPS
Count of elements: 478
Stream size: 14.2 KiB (0%)
Language: English (US)
Default: No
Forced: No

Text #2
ID: 4
Format: UTF-8
Codec ID: S_TEXT/UTF8
Codec ID/Info: UTF-8 Plain Text
Duration: 21 min 1 s
Bit rate: 96 b/s
Frame rate: 0.391 FPS
Count of elements: 493
Stream size: 14.8 KiB (0%)
Title: SDH
Language: English (US)
Default: No
Forced: No

Menu
00:00:00.000: en:Scene 1
00:20:57.000: en:End Credits

ssl  EZTV RSS EZTV Status | EZTV API | DMCA: [email protected]