eztv.wf | eztvstatus.org
Search title:  
TV Packs only
 

Franklin 2024 S01E01 Sauce for Prayers 720p ATVP WEB-DL DDP5 1 Atmos H 264-FLUX EZTV

Episode Breakdown
Franklin
Franklin TV Show S01E01

Season: 1
Episode: 1
Air Date: 12 April, 2024
Download Links
     Torrent Download     Magnet Download
     Anonymous Download
Added 3 months ago by eztv (verified).
Tracker Statistics
Seeds: 10
Peers: 2
Stats generated @ 13:02 on 19th Jul 2024
Torrent Info
Torrent File: Franklin 2024 S01E01 Sauce for Prayers 720p ATVP WEB-DL DDP5 1 Atmos H 264-FLUX[EZTVx.to].mkv
Torrent Hash: 2D07D47C6D95EA2ADDC6A91F75C104980E2F8F34
Filesize: 1.50 GB
Released: 12th Apr 2024

File Format: MKV (Matroska)
Resolution: 1280x720 px
Aspect Ratio: 16:9
Alternate Releases S L
Franklin 2024 S01E01 MULTI 1080p WEB H264-HiggsBoson 7 0
Franklin 2024 S01E01 Sauce for Prayers 1080p ATVP WEB-DL DDP5 1 Atmos H 264-FLUX 9 1
Franklin 2024 S01E01 1080p HEVC x265-MeGusta 20 5
Franklin 2024 S01E01 1080p WEB H264-SuccessfulCrab 5 1
Franklin 2024 S01E01 XviD-AFG 10 1
Franklin 2024 S01E01 720p x264-FENiX 6 1
Franklin 2024 S01E01 720p x265-T0PAZ 14 4

Franklin S01E01 - Sauce for Prayers

Summary:

As the fight for independence teeters on the brink of defeat, Benjamin Franklin and his grandson plunge into a world of intrigue and deception.



Franklin 2024 S01E01 Sauce for Prayers 720p ATVP WEB-DL DDP5 1 Atmos H 264-FLUX EZTV
Franklin S1E1 Screenshot


General
Unique ID: 259177290065209192404818225445331495521 (0xC2FBBAFA7505794A04AAD38E11FB6A61)
Complete name: Franklin 2024 S01E01 Sauce for Prayers 720p ATVP WEB-DL DDP5 1 Atmos H 264-FLUX.mkv
Format: Matroska
Format version: Version 4
File size: 1.50 GiB
Duration: 59 min 26 s
Overall bit rate: 3 616 kb/s
Frame rate: 23.976 FPS
Writing application: mkvmerge v83.0 ('Circle Of Friends') 64-bit
Writing library: libebml v1.4.5 + libmatroska v1.7.1

Video
ID: 1
Format: AVC
Format/Info: Advanced Video Codec
Format profile: [email protected]
Format settings: CABAC / 5 Ref Frames
Format settings, CABAC: Yes
Format settings, Reference frames: 5 frames
Codec ID: V_MPEG4/ISO/AVC
Duration: 59 min 26 s
Bit rate: 2 841 kb/s
Width: 1 422 pixels
Height: 646 pixels
Display aspect ratio: 2.2:1
Frame rate mode: Constant
Frame rate: 23.976 (24000/1001) FPS
Color space: YUV
Chroma subsampling: 4:2:0
Bit depth: 8 bits
Scan type: Progressive
Bits/(Pixel*Frame): 0.129
Stream size: 1.18 GiB (79%)
Language: English
Default: Yes
Forced: No
Color range: Limited
Color primaries: BT.709
Transfer characteristics: BT.709
Matrix coefficients: BT.709

Audio
ID: 2
Format: E-AC-3 JOC
Format/Info: Enhanced AC-3 with Joint Object Coding
Commercial name: Dolby Digital Plus with Dolby Atmos
Codec ID: A_EAC3
Duration: 59 min 26 s
Bit rate mode: Constant
Bit rate: 768 kb/s
Channel(s): 6 channels
Channel layout: L R C LFE Ls Rs
Sampling rate: 48.0 kHz
Frame rate: 31.250 FPS (1536 SPF)
Compression mode: Lossy
Stream size: 326 MiB (21%)
Language: English
Service kind: Complete Main
Default: Yes
Forced: No
Complexity index: 16
Number of dynamic objects: 15
Bed channel count: 1 channel
Bed channel configuration: LFE

Text #1
ID: 3
Format: UTF-8
Codec ID: S_TEXT/UTF8
Codec ID/Info: UTF-8 Plain Text
Duration: 46 min 6 s
Bit rate: 22 b/s
Frame rate: 0.087 FPS
Count of elements: 241
Stream size: 7.75 KiB (0%)
Title: Forced
Language: English
Default: Yes
Forced: Yes

Text #2
ID: 4
Format: UTF-8
Codec ID: S_TEXT/UTF8
Codec ID/Info: UTF-8 Plain Text
Duration: 55 min 8 s
Bit rate: 54 b/s
Frame rate: 0.197 FPS
Count of elements: 652
Stream size: 22.0 KiB (0%)
Language: English
Default: No
Forced: No

Text #3
ID: 5
Format: UTF-8
Codec ID: S_TEXT/UTF8
Codec ID/Info: UTF-8 Plain Text
Duration: 56 min 28 s
Bit rate: 65 b/s
Frame rate: 0.236 FPS
Count of elements: 800
Stream size: 27.3 KiB (0%)
Title: SDH
Language: English
Default: No
Forced: No

Text #4
ID: 6
Format: UTF-8
Codec ID: S_TEXT/UTF8
Codec ID/Info: UTF-8 Plain Text
Duration: 56 min 28 s
Bit rate: 46 b/s
Frame rate: 0.184 FPS
Count of elements: 624
Stream size: 19.4 KiB (0%)
Title: SDH
Language: English
Default: No
Forced: No

Text #5
ID: 7
Format: UTF-8
Codec ID: S_TEXT/UTF8
Codec ID/Info: UTF-8 Plain Text
Duration: 59 min 2 s
Bit rate: 77 b/s
Frame rate: 0.187 FPS
Count of elements: 664
Stream size: 33.6 KiB (0%)
Language: Arabic
Default: No
Forced: No

Text #6
ID: 8
Format: UTF-8
Codec ID: S_TEXT/UTF8
Codec ID/Info: UTF-8 Plain Text
Duration: 59 min 2 s
Bit rate: 82 b/s
Frame rate: 0.153 FPS
Count of elements: 543
Stream size: 35.7 KiB (0%)
Language: Bulgarian
Default: No
Forced: No

Text #7
ID: 9
Format: UTF-8
Codec ID: S_TEXT/UTF8
Codec ID/Info: UTF-8 Plain Text
Duration: 59 min 2 s
Bit rate: 47 b/s
Frame rate: 0.189 FPS
Count of elements: 670
Stream size: 20.5 KiB (0%)
Title: Simplified
Language: Chinese (Simplified)
Default: No
Forced: No

Text #8
ID: 10
Format: UTF-8
Codec ID: S_TEXT/UTF8
Codec ID/Info: UTF-8 Plain Text
Duration: 59 min 2 s
Bit rate: 46 b/s
Frame rate: 0.189 FPS
Count of elements: 670
Stream size: 19.9 KiB (0%)
Title: Traditional
Language: Chinese (Traditional)
Default: No
Forced: No

Text #9
ID: 11
Format: UTF-8
Codec ID: S_TEXT/UTF8
Codec ID/Info: UTF-8 Plain Text
Duration: 59 min 2 s
Bit rate: 52 b/s
Frame rate: 0.181 FPS
Count of elements: 640
Stream size: 22.8 KiB (0%)
Language: Czech
Default: No
Forced: No

Text #10
ID: 12
Format: UTF-8
Codec ID: S_TEXT/UTF8
Codec ID/Info: UTF-8 Plain Text
Duration: 59 min 2 s
Bit rate: 54 b/s
Frame rate: 0.167 FPS
Count of elements: 593
Stream size: 23.4 KiB (0%)
Language: Danish
Default: No
Forced: No

Text #11
ID: 13
Format: UTF-8
Codec ID: S_TEXT/UTF8
Codec ID/Info: UTF-8 Plain Text
Duration: 59 min 2 s
Bit rate: 53 b/s
Frame rate: 0.177 FPS
Count of elements: 628
Stream size: 23.3 KiB (0%)
Language: German
Default: No
Forced: No

Text #12
ID: 14
Format: UTF-8
Codec ID: S_TEXT/UTF8
Codec ID/Info: UTF-8 Plain Text
Duration: 59 min 2 s
Bit rate: 94 b/s
Frame rate: 0.179 FPS
Count of elements: 633
Stream size: 40.9 KiB (0%)
Language: Greek
Default: No
Forced: No

Text #13
ID: 15
Format: UTF-8
Codec ID: S_TEXT/UTF8
Codec ID/Info: UTF-8 Plain Text
Duration: 59 min 2 s
Bit rate: 51 b/s
Frame rate: 0.182 FPS
Count of elements: 646
Stream size: 22.4 KiB (0%)
Title: Latin American
Language: Spanish (Latin America)
Default: No
Forced: No

Text #14
ID: 16
Format: UTF-8
Codec ID: S_TEXT/UTF8
Codec ID/Info: UTF-8 Plain Text
Duration: 59 min 2 s
Bit rate: 51 b/s
Frame rate: 0.187 FPS
Count of elements: 661
Stream size: 22.5 KiB (0%)
Language: Spanish (ES)
Default: No
Forced: No

Text #15
ID: 17
Format: UTF-8
Codec ID: S_TEXT/UTF8
Codec ID/Info: UTF-8 Plain Text
Duration: 59 min 2 s
Bit rate: 51 b/s
Frame rate: 0.186 FPS
Count of elements: 659
Stream size: 22.4 KiB (0%)
Language: Estonian
Default: No
Forced: No

Text #16
ID: 18
Format: UTF-8
Codec ID: S_TEXT/UTF8
Codec ID/Info: UTF-8 Plain Text
Duration: 59 min 2 s
Bit rate: 52 b/s
Frame rate: 0.188 FPS
Count of elements: 666
Stream size: 22.6 KiB (0%)
Language: Finnish
Default: No
Forced: No

Text #17
ID: 19
Format: UTF-8
Codec ID: S_TEXT/UTF8
Codec ID/Info: UTF-8 Plain Text
Duration: 59 min 0 s
Bit rate: 59 b/s
Frame rate: 0.206 FPS
Count of elements: 731
Stream size: 25.7 KiB (0%)
Title: Canadian
Language: French (CA)
Default: No
Forced: No

Text #18
ID: 20
Format: UTF-8
Codec ID: S_TEXT/UTF8
Codec ID/Info: UTF-8 Plain Text
Duration: 59 min 0 s
Bit rate: 59 b/s
Frame rate: 0.206 FPS
Count of elements: 731
Stream size: 25.7 KiB (0%)
Language: French (FR)
Default: No
Forced: No

Text #19
ID: 21
Format: UTF-8
Codec ID: S_TEXT/UTF8
Codec ID/Info: UTF-8 Plain Text
Duration: 59 min 2 s
Bit rate: 74 b/s
Frame rate: 0.189 FPS
Count of elements: 670
Stream size: 32.2 KiB (0%)
Language: Hebrew
Default: No
Forced: No

Text #20
ID: 22
Format: UTF-8
Codec ID: S_TEXT/UTF8
Codec ID/Info: UTF-8 Plain Text
Duration: 59 min 2 s
Bit rate: 142 b/s
Frame rate: 0.189 FPS
Count of elements: 671
Stream size: 61.5 KiB (0%)
Language: Hindi
Default: No
Forced: No

Text #21
ID: 23
Format: UTF-8
Codec ID: S_TEXT/UTF8
Codec ID/Info: UTF-8 Plain Text
Duration: 59 min 2 s
Bit rate: 57 b/s
Frame rate: 0.189 FPS
Count of elements: 668
Stream size: 24.8 KiB (0%)
Language: Hungarian
Default: No
Forced: No

Text #22
ID: 24
Format: UTF-8
Codec ID: S_TEXT/UTF8
Codec ID/Info: UTF-8 Plain Text
Duration: 59 min 2 s
Bit rate: 53 b/s
Frame rate: 0.189 FPS
Count of elements: 669
Stream size: 23.2 KiB (0%)
Language: Indonesian
Default: No
Forced: No

Text #23
ID: 25
Format: UTF-8
Codec ID: S_TEXT/UTF8
Codec ID/Info: UTF-8 Plain Text
Duration: 59 min 2 s
Bit rate: 53 b/s
Frame rate: 0.189 FPS
Count of elements: 668
Stream size: 23.2 KiB (0%)
Language: Italian
Default: No
Forced: No

Text #24
ID: 26
Format: UTF-8
Codec ID: S_TEXT/UTF8
Codec ID/Info: UTF-8 Plain Text
Duration: 59 min 2 s
Bit rate: 49 b/s
Frame rate: 0.200 FPS
Count of elements: 710
Stream size: 21.3 KiB (0%)
Language: Japanese
Default: No
Forced: No

Text #25
ID: 27
Format: UTF-8
Codec ID: S_TEXT/UTF8
Codec ID/Info: UTF-8 Plain Text
Duration: 59 min 2 s
Bit rate: 55 b/s
Frame rate: 0.189 FPS
Count of elements: 670
Stream size: 24.0 KiB (0%)
Language: Korean
Default: No
Forced: No

Text #26
ID: 28
Format: UTF-8
Codec ID: S_TEXT/UTF8
Codec ID/Info: UTF-8 Plain Text
Duration: 59 min 2 s
Bit rate: 53 b/s
Frame rate: 0.189 FPS
Count of elements: 670
Stream size: 23.3 KiB (0%)
Language: Lithuanian
Default: No
Forced: No

Text #27
ID: 29
Format: UTF-8
Codec ID: S_TEXT/UTF8
Codec ID/Info: UTF-8 Plain Text
Duration: 59 min 2 s
Bit rate: 54 b/s
Frame rate: 0.186 FPS
Count of elements: 658
Stream size: 23.4 KiB (0%)
Language: Latvian
Default: No
Forced: No

Text #28
ID: 30
Format: UTF-8
Codec ID: S_TEXT/UTF8
Codec ID/Info: UTF-8 Plain Text
Duration: 59 min 2 s
Bit rate: 51 b/s
Frame rate: 0.189 FPS
Count of elements: 668
Stream size: 22.4 KiB (0%)
Language: Malay
Default: No
Forced: No

Text #29
ID: 31
Format: UTF-8
Codec ID: S_TEXT/UTF8
Codec ID/Info: UTF-8 Plain Text
Duration: 59 min 2 s
Bit rate: 49 b/s
Frame rate: 0.147 FPS
Count of elements: 522
Stream size: 21.5 KiB (0%)
Language: Dutch
Default: No
Forced: No

Text #30
ID: 32
Format: UTF-8
Codec ID: S_TEXT/UTF8
Codec ID/Info: UTF-8 Plain Text
Duration: 59 min 2 s
Bit rate: 50 b/s
Frame rate: 0.174 FPS
Count of elements: 617
Stream size: 21.9 KiB (0%)
Language: Norwegian
Default: No
Forced: No

Text #31
ID: 33
Format: UTF-8
Codec ID: S_TEXT/UTF8
Codec ID/Info: UTF-8 Plain Text
Duration: 59 min 2 s
Bit rate: 54 b/s
Frame rate: 0.189 FPS
Count of elements: 668
Stream size: 23.7 KiB (0%)
Language: Polish
Default: No
Forced: No

Text #32
ID: 34
Format: UTF-8
Codec ID: S_TEXT/UTF8
Codec ID/Info: UTF-8 Plain Text
Duration: 59 min 2 s
Bit rate: 54 b/s
Frame rate: 0.188 FPS
Count of elements: 666
Stream size: 23.5 KiB (0%)
Language: Portuguese
Default: No
Forced: No

Text #33
ID: 35
Format: UTF-8
Codec ID: S_TEXT/UTF8
Codec ID/Info: UTF-8 Plain Text
Duration: 59 min 2 s
Bit rate: 51 b/s
Frame rate: 0.176 FPS
Count of elements: 625
Stream size: 22.3 KiB (0%)
Title: Brazilian
Language: Portuguese (BR)
Default: No
Forced: No

Text #34
ID: 36
Format: UTF-8
Codec ID: S_TEXT/UTF8
Codec ID/Info: UTF-8 Plain Text
Duration: 59 min 2 s
Bit rate: 83 b/s
Frame rate: 0.186 FPS
Count of elements: 658
Stream size: 36.0 KiB (0%)
Language: Russian
Default: No
Forced: No

Text #35
ID: 37
Format: UTF-8
Codec ID: S_TEXT/UTF8
Codec ID/Info: UTF-8 Plain Text
Duration: 59 min 2 s
Bit rate: 51 b/s
Frame rate: 0.188 FPS
Count of elements: 667
Stream size: 22.1 KiB (0%)
Language: Slovak
Default: No
Forced: No

Text #36
ID: 38
Format: UTF-8
Codec ID: S_TEXT/UTF8
Codec ID/Info: UTF-8 Plain Text
Duration: 59 min 2 s
Bit rate: 45 b/s
Frame rate: 0.171 FPS
Count of elements: 607
Stream size: 19.8 KiB (0%)
Language: Slovenian
Default: No
Forced: No

Text #37
ID: 39
Format: UTF-8
Codec ID: S_TEXT/UTF8
Codec ID/Info: UTF-8 Plain Text
Duration: 59 min 2 s
Bit rate: 54 b/s
Frame rate: 0.180 FPS
Count of elements: 639
Stream size: 23.5 KiB (0%)
Language: Swedish
Default: No
Forced: No

Text #38
ID: 40
Format: UTF-8
Codec ID: S_TEXT/UTF8
Codec ID/Info: UTF-8 Plain Text
Duration: 59 min 2 s
Bit rate: 179 b/s
Frame rate: 0.189 FPS
Count of elements: 670
Stream size: 77.5 KiB (0%)
Language: Tamil
Default: No
Forced: No

Text #39
ID: 41
Format: UTF-8
Codec ID: S_TEXT/UTF8
Codec ID/Info: UTF-8 Plain Text
Duration: 59 min 2 s
Bit rate: 159 b/s
Frame rate: 0.189 FPS
Count of elements: 670
Stream size: 68.8 KiB (0%)
Language: Telugu
Default: No
Forced: No

Text #40
ID: 42
Format: UTF-8
Codec ID: S_TEXT/UTF8
Codec ID/Info: UTF-8 Plain Text
Duration: 59 min 2 s
Bit rate: 124 b/s
Frame rate: 0.189 FPS
Count of elements: 669
Stream size: 53.7 KiB (0%)
Language: Thai
Default: No
Forced: No

Text #41
ID: 43
Format: UTF-8
Codec ID: S_TEXT/UTF8
Codec ID/Info: UTF-8 Plain Text
Duration: 59 min 2 s
Bit rate: 50 b/s
Frame rate: 0.183 FPS
Count of elements: 648
Stream size: 21.6 KiB (0%)
Language: Turkish
Default: No
Forced: No

Text #42
ID: 44
Format: UTF-8
Codec ID: S_TEXT/UTF8
Codec ID/Info: UTF-8 Plain Text
Duration: 59 min 2 s
Bit rate: 87 b/s
Frame rate: 0.189 FPS
Count of elements: 671
Stream size: 37.8 KiB (0%)
Language: Ukrainian
Default: No
Forced: No

Text #43
ID: 45
Format: UTF-8
Codec ID: S_TEXT/UTF8
Codec ID/Info: UTF-8 Plain Text
Duration: 59 min 2 s
Bit rate: 68 b/s
Frame rate: 0.189 FPS
Count of elements: 668
Stream size: 29.5 KiB (0%)
Language: Vietnamese
Default: No
Forced: No

Text #44
ID: 46
Format: UTF-8
Codec ID: S_TEXT/UTF8
Codec ID/Info: UTF-8 Plain Text
Duration: 59 min 2 s
Bit rate: 42 b/s
Frame rate: 0.189 FPS
Count of elements: 671
Stream size: 18.6 KiB (0%)
Title: Traditional
Language: Cantonese (Hant)
Default: No
Forced: No

Menu
00:00:00.000: en:Studio Logo
00:00:08.843: en:Main
00:57:20.500: en:Credits
ssl  EZTV RSS EZTV Status | EZTV API | DMCA: [email protected]