eztv.wf | eztvstatus.org
Search title:  
TV Packs only
 

Franklin 2024 S01E02 Welcome Mischief 720p ATVP WEB-DL DDP5 1 Atmos H 264-FLUX EZTV

Episode Breakdown
Franklin
Franklin TV Show S01E02

Season: 1
Episode: 2
Air Date: 12 April, 2024
Download Links
     Torrent Download     Magnet Download
     Anonymous Download
Added 3 months ago by eztv (verified).
Tracker Statistics
Seeds: 3
Peers: 0
Stats generated @ 14:11 on 19th Jul 2024
Torrent Info
Torrent File: Franklin 2024 S01E02 Welcome Mischief 720p ATVP WEB-DL DDP5 1 Atmos H 264-FLUX[EZTVx.to].mkv
Torrent Hash: 5576CCB436D213BA0A1B9FBF0A1A968CA8380054
Filesize: 1.23 GB
Released: 12th Apr 2024

File Format: MKV (Matroska)
Resolution: 1280x720 px
Aspect Ratio: 16:9
Alternate Releases S L
Franklin 2024 S01E02 1080p WEB H264-SuccessfulCrab 16 0
Franklin 2024 S01E02 1080p HEVC x265-MeGusta 20 1
Franklin 2024 S01E02 XviD-AFG 4 1
Franklin 2024 S01E02 Welcome Mischief 1080p ATVP WEB-DL DDP5 1 Atmos H 264-FLUX 5 2
Franklin 2024 S01E02 MULTI 1080p WEB H264-HiggsBoson 6 1
Franklin 2024 S01E02 720p x264-FENiX 0 0
Franklin 2024 S01E02 720p x265-T0PAZ 9 3

Franklin S01E02 - Welcome, Mischief

Summary:

An arms operation is threatened by a ruthless opponent. The Paris police watch Franklin's every move. Temple makes a confession.



Franklin 2024 S01E02 Welcome Mischief 720p ATVP WEB-DL DDP5 1 Atmos H 264-FLUX EZTV
Franklin S1E2 Screenshot


General
Unique ID: 250921191857754316128777305954129503301 (0xBCC5A9E8C4C8FED720E3A3E0B72F6445)
Complete name: Franklin 2024 S01E02 Welcome Mischief 720p ATVP WEB-DL DDP5 1 Atmos H 264-FLUX.mkv
Format: Matroska
Format version: Version 4
File size: 1.23 GiB
Duration: 48 min 31 s
Overall bit rate: 3 629 kb/s
Frame rate: 23.976 FPS
Writing application: mkvmerge v83.0 ('Circle Of Friends') 64-bit
Writing library: libebml v1.4.5 + libmatroska v1.7.1

Video
ID: 1
Format: AVC
Format/Info: Advanced Video Codec
Format profile: [email protected]
Format settings: CABAC / 5 Ref Frames
Format settings, CABAC: Yes
Format settings, Reference frames: 5 frames
Codec ID: V_MPEG4/ISO/AVC
Duration: 48 min 31 s
Bit rate: 2 853 kb/s
Width: 1 420 pixels
Height: 646 pixels
Display aspect ratio: 2.2:1
Frame rate mode: Constant
Frame rate: 23.976 (24000/1001) FPS
Color space: YUV
Chroma subsampling: 4:2:0
Bit depth: 8 bits
Scan type: Progressive
Bits/(Pixel*Frame): 0.130
Stream size: 990 MiB (79%)
Language: English
Default: Yes
Forced: No
Color range: Limited
Color primaries: BT.709
Transfer characteristics: BT.709
Matrix coefficients: BT.709

Audio
ID: 2
Format: E-AC-3 JOC
Format/Info: Enhanced AC-3 with Joint Object Coding
Commercial name: Dolby Digital Plus with Dolby Atmos
Codec ID: A_EAC3
Duration: 48 min 31 s
Bit rate mode: Constant
Bit rate: 768 kb/s
Channel(s): 6 channels
Channel layout: L R C LFE Ls Rs
Sampling rate: 48.0 kHz
Frame rate: 31.250 FPS (1536 SPF)
Compression mode: Lossy
Stream size: 267 MiB (21%)
Language: English
Service kind: Complete Main
Default: Yes
Forced: No
Complexity index: 16
Number of dynamic objects: 15
Bed channel count: 1 channel
Bed channel configuration: LFE

Text #1
ID: 3
Format: UTF-8
Codec ID: S_TEXT/UTF8
Codec ID/Info: UTF-8 Plain Text
Duration: 44 min 35 s
Bit rate: 18 b/s
Frame rate: 0.070 FPS
Count of elements: 188
Stream size: 6.15 KiB (0%)
Title: Forced
Language: English
Default: Yes
Forced: Yes

Text #2
ID: 4
Format: UTF-8
Codec ID: S_TEXT/UTF8
Codec ID/Info: UTF-8 Plain Text
Duration: 45 min 16 s
Bit rate: 64 b/s
Frame rate: 0.226 FPS
Count of elements: 613
Stream size: 21.4 KiB (0%)
Language: English
Default: No
Forced: No

Text #3
ID: 5
Format: UTF-8
Codec ID: S_TEXT/UTF8
Codec ID/Info: UTF-8 Plain Text
Duration: 46 min 6 s
Bit rate: 76 b/s
Frame rate: 0.261 FPS
Count of elements: 723
Stream size: 25.7 KiB (0%)
Title: SDH
Language: English
Default: No
Forced: No

Text #4
ID: 6
Format: UTF-8
Codec ID: S_TEXT/UTF8
Codec ID/Info: UTF-8 Plain Text
Duration: 46 min 6 s
Bit rate: 57 b/s
Frame rate: 0.221 FPS
Count of elements: 611
Stream size: 19.5 KiB (0%)
Title: SDH
Language: English
Default: No
Forced: No

Text #5
ID: 7
Format: UTF-8
Codec ID: S_TEXT/UTF8
Codec ID/Info: UTF-8 Plain Text
Duration: 48 min 8 s
Bit rate: 88 b/s
Frame rate: 0.214 FPS
Count of elements: 618
Stream size: 31.3 KiB (0%)
Language: Arabic
Default: No
Forced: No

Text #6
ID: 8
Format: UTF-8
Codec ID: S_TEXT/UTF8
Codec ID/Info: UTF-8 Plain Text
Duration: 48 min 8 s
Bit rate: 95 b/s
Frame rate: 0.166 FPS
Count of elements: 480
Stream size: 33.5 KiB (0%)
Language: Bulgarian
Default: No
Forced: No

Text #7
ID: 9
Format: UTF-8
Codec ID: S_TEXT/UTF8
Codec ID/Info: UTF-8 Plain Text
Duration: 48 min 8 s
Bit rate: 54 b/s
Frame rate: 0.215 FPS
Count of elements: 621
Stream size: 19.4 KiB (0%)
Title: Simplified
Language: Chinese (Simplified)
Default: No
Forced: No

Text #8
ID: 10
Format: UTF-8
Codec ID: S_TEXT/UTF8
Codec ID/Info: UTF-8 Plain Text
Duration: 48 min 8 s
Bit rate: 53 b/s
Frame rate: 0.215 FPS
Count of elements: 622
Stream size: 18.8 KiB (0%)
Title: Traditional
Language: Chinese (Traditional)
Default: No
Forced: No

Text #9
ID: 11
Format: UTF-8
Codec ID: S_TEXT/UTF8
Codec ID/Info: UTF-8 Plain Text
Duration: 48 min 8 s
Bit rate: 59 b/s
Frame rate: 0.200 FPS
Count of elements: 579
Stream size: 20.8 KiB (0%)
Language: Czech
Default: No
Forced: No

Text #10
ID: 12
Format: UTF-8
Codec ID: S_TEXT/UTF8
Codec ID/Info: UTF-8 Plain Text
Duration: 48 min 8 s
Bit rate: 61 b/s
Frame rate: 0.176 FPS
Count of elements: 508
Stream size: 21.8 KiB (0%)
Language: Danish
Default: No
Forced: No

Text #11
ID: 13
Format: UTF-8
Codec ID: S_TEXT/UTF8
Codec ID/Info: UTF-8 Plain Text
Duration: 48 min 8 s
Bit rate: 61 b/s
Frame rate: 0.196 FPS
Count of elements: 567
Stream size: 21.8 KiB (0%)
Language: German
Default: No
Forced: No

Text #12
ID: 14
Format: UTF-8
Codec ID: S_TEXT/UTF8
Codec ID/Info: UTF-8 Plain Text
Duration: 48 min 8 s
Bit rate: 108 b/s
Frame rate: 0.202 FPS
Count of elements: 584
Stream size: 38.3 KiB (0%)
Language: Greek
Default: No
Forced: No

Text #13
ID: 15
Format: UTF-8
Codec ID: S_TEXT/UTF8
Codec ID/Info: UTF-8 Plain Text
Duration: 48 min 8 s
Bit rate: 58 b/s
Frame rate: 0.207 FPS
Count of elements: 597
Stream size: 20.7 KiB (0%)
Title: Latin American
Language: Spanish (Latin America)
Default: No
Forced: No

Text #14
ID: 16
Format: UTF-8
Codec ID: S_TEXT/UTF8
Codec ID/Info: UTF-8 Plain Text
Duration: 48 min 8 s
Bit rate: 59 b/s
Frame rate: 0.209 FPS
Count of elements: 604
Stream size: 20.8 KiB (0%)
Language: Spanish (ES)
Default: No
Forced: No

Text #15
ID: 17
Format: UTF-8
Codec ID: S_TEXT/UTF8
Codec ID/Info: UTF-8 Plain Text
Duration: 48 min 8 s
Bit rate: 60 b/s
Frame rate: 0.210 FPS
Count of elements: 606
Stream size: 21.5 KiB (0%)
Language: Estonian
Default: No
Forced: No

Text #16
ID: 18
Format: UTF-8
Codec ID: S_TEXT/UTF8
Codec ID/Info: UTF-8 Plain Text
Duration: 48 min 8 s
Bit rate: 57 b/s
Frame rate: 0.208 FPS
Count of elements: 601
Stream size: 20.4 KiB (0%)
Language: Finnish
Default: No
Forced: No

Text #17
ID: 19
Format: UTF-8
Codec ID: S_TEXT/UTF8
Codec ID/Info: UTF-8 Plain Text
Duration: 48 min 6 s
Bit rate: 66 b/s
Frame rate: 0.240 FPS
Count of elements: 693
Stream size: 23.3 KiB (0%)
Title: Canadian
Language: French (CA)
Default: No
Forced: No

Text #18
ID: 20
Format: UTF-8
Codec ID: S_TEXT/UTF8
Codec ID/Info: UTF-8 Plain Text
Duration: 48 min 6 s
Bit rate: 66 b/s
Frame rate: 0.240 FPS
Count of elements: 693
Stream size: 23.3 KiB (0%)
Language: French (FR)
Default: No
Forced: No

Text #19
ID: 21
Format: UTF-8
Codec ID: S_TEXT/UTF8
Codec ID/Info: UTF-8 Plain Text
Duration: 48 min 8 s
Bit rate: 86 b/s
Frame rate: 0.214 FPS
Count of elements: 619
Stream size: 30.5 KiB (0%)
Language: Hebrew
Default: No
Forced: No

Text #20
ID: 22
Format: UTF-8
Codec ID: S_TEXT/UTF8
Codec ID/Info: UTF-8 Plain Text
Duration: 48 min 8 s
Bit rate: 167 b/s
Frame rate: 0.215 FPS
Count of elements: 622
Stream size: 58.9 KiB (0%)
Language: Hindi
Default: No
Forced: No

Text #21
ID: 23
Format: UTF-8
Codec ID: S_TEXT/UTF8
Codec ID/Info: UTF-8 Plain Text
Duration: 48 min 8 s
Bit rate: 66 b/s
Frame rate: 0.214 FPS
Count of elements: 618
Stream size: 23.5 KiB (0%)
Language: Hungarian
Default: No
Forced: No

Text #22
ID: 24
Format: UTF-8
Codec ID: S_TEXT/UTF8
Codec ID/Info: UTF-8 Plain Text
Duration: 48 min 8 s
Bit rate: 62 b/s
Frame rate: 0.214 FPS
Count of elements: 618
Stream size: 22.2 KiB (0%)
Language: Indonesian
Default: No
Forced: No

Text #23
ID: 25
Format: UTF-8
Codec ID: S_TEXT/UTF8
Codec ID/Info: UTF-8 Plain Text
Duration: 48 min 8 s
Bit rate: 62 b/s
Frame rate: 0.213 FPS
Count of elements: 615
Stream size: 21.9 KiB (0%)
Language: Italian
Default: No
Forced: No

Text #24
ID: 26
Format: UTF-8
Codec ID: S_TEXT/UTF8
Codec ID/Info: UTF-8 Plain Text
Duration: 48 min 8 s
Bit rate: 56 b/s
Frame rate: 0.222 FPS
Count of elements: 642
Stream size: 19.9 KiB (0%)
Language: Japanese
Default: No
Forced: No

Text #25
ID: 27
Format: UTF-8
Codec ID: S_TEXT/UTF8
Codec ID/Info: UTF-8 Plain Text
Duration: 48 min 8 s
Bit rate: 65 b/s
Frame rate: 0.215 FPS
Count of elements: 620
Stream size: 23.1 KiB (0%)
Language: Korean
Default: No
Forced: No

Text #26
ID: 28
Format: UTF-8
Codec ID: S_TEXT/UTF8
Codec ID/Info: UTF-8 Plain Text
Duration: 48 min 8 s
Bit rate: 62 b/s
Frame rate: 0.214 FPS
Count of elements: 619
Stream size: 21.9 KiB (0%)
Language: Lithuanian
Default: No
Forced: No

Text #27
ID: 29
Format: UTF-8
Codec ID: S_TEXT/UTF8
Codec ID/Info: UTF-8 Plain Text
Duration: 48 min 8 s
Bit rate: 62 b/s
Frame rate: 0.212 FPS
Count of elements: 611
Stream size: 21.9 KiB (0%)
Language: Latvian
Default: No
Forced: No

Text #28
ID: 30
Format: UTF-8
Codec ID: S_TEXT/UTF8
Codec ID/Info: UTF-8 Plain Text
Duration: 48 min 8 s
Bit rate: 59 b/s
Frame rate: 0.214 FPS
Count of elements: 619
Stream size: 21.0 KiB (0%)
Language: Malay
Default: No
Forced: No

Text #29
ID: 31
Format: UTF-8
Codec ID: S_TEXT/UTF8
Codec ID/Info: UTF-8 Plain Text
Duration: 48 min 8 s
Bit rate: 57 b/s
Frame rate: 0.167 FPS
Count of elements: 482
Stream size: 20.4 KiB (0%)
Language: Dutch
Default: No
Forced: No

Text #30
ID: 32
Format: UTF-8
Codec ID: S_TEXT/UTF8
Codec ID/Info: UTF-8 Plain Text
Duration: 48 min 8 s
Bit rate: 59 b/s
Frame rate: 0.191 FPS
Count of elements: 551
Stream size: 20.9 KiB (0%)
Language: Norwegian
Default: No
Forced: No

Text #31
ID: 33
Format: UTF-8
Codec ID: S_TEXT/UTF8
Codec ID/Info: UTF-8 Plain Text
Duration: 48 min 8 s
Bit rate: 63 b/s
Frame rate: 0.214 FPS
Count of elements: 617
Stream size: 22.3 KiB (0%)
Language: Polish
Default: No
Forced: No

Text #32
ID: 34
Format: UTF-8
Codec ID: S_TEXT/UTF8
Codec ID/Info: UTF-8 Plain Text
Duration: 48 min 8 s
Bit rate: 63 b/s
Frame rate: 0.214 FPS
Count of elements: 617
Stream size: 22.3 KiB (0%)
Language: Portuguese
Default: No
Forced: No

Text #33
ID: 35
Format: UTF-8
Codec ID: S_TEXT/UTF8
Codec ID/Info: UTF-8 Plain Text
Duration: 48 min 8 s
Bit rate: 59 b/s
Frame rate: 0.204 FPS
Count of elements: 589
Stream size: 20.9 KiB (0%)
Title: Brazilian
Language: Portuguese (BR)
Default: No
Forced: No

Text #34
ID: 36
Format: UTF-8
Codec ID: S_TEXT/UTF8
Codec ID/Info: UTF-8 Plain Text
Duration: 48 min 8 s
Bit rate: 95 b/s
Frame rate: 0.207 FPS
Count of elements: 599
Stream size: 33.5 KiB (0%)
Language: Russian
Default: No
Forced: No

Text #35
ID: 37
Format: UTF-8
Codec ID: S_TEXT/UTF8
Codec ID/Info: UTF-8 Plain Text
Duration: 48 min 8 s
Bit rate: 58 b/s
Frame rate: 0.213 FPS
Count of elements: 616
Stream size: 20.5 KiB (0%)
Language: Slovak
Default: No
Forced: No

Text #36
ID: 38
Format: UTF-8
Codec ID: S_TEXT/UTF8
Codec ID/Info: UTF-8 Plain Text
Duration: 48 min 8 s
Bit rate: 53 b/s
Frame rate: 0.181 FPS
Count of elements: 522
Stream size: 19.0 KiB (0%)
Language: Slovenian
Default: No
Forced: No

Text #37
ID: 39
Format: UTF-8
Codec ID: S_TEXT/UTF8
Codec ID/Info: UTF-8 Plain Text
Duration: 48 min 8 s
Bit rate: 61 b/s
Frame rate: 0.196 FPS
Count of elements: 566
Stream size: 21.7 KiB (0%)
Language: Swedish
Default: No
Forced: No

Text #38
ID: 40
Format: UTF-8
Codec ID: S_TEXT/UTF8
Codec ID/Info: UTF-8 Plain Text
Duration: 48 min 8 s
Bit rate: 216 b/s
Frame rate: 0.215 FPS
Count of elements: 621
Stream size: 76.2 KiB (0%)
Language: Tamil
Default: No
Forced: No

Text #39
ID: 41
Format: UTF-8
Codec ID: S_TEXT/UTF8
Codec ID/Info: UTF-8 Plain Text
Duration: 48 min 8 s
Bit rate: 185 b/s
Frame rate: 0.215 FPS
Count of elements: 622
Stream size: 65.6 KiB (0%)
Language: Telugu
Default: No
Forced: No

Text #40
ID: 42
Format: UTF-8
Codec ID: S_TEXT/UTF8
Codec ID/Info: UTF-8 Plain Text
Duration: 48 min 8 s
Bit rate: 148 b/s
Frame rate: 0.214 FPS
Count of elements: 619
Stream size: 52.4 KiB (0%)
Language: Thai
Default: No
Forced: No

Text #41
ID: 43
Format: UTF-8
Codec ID: S_TEXT/UTF8
Codec ID/Info: UTF-8 Plain Text
Duration: 48 min 8 s
Bit rate: 58 b/s
Frame rate: 0.198 FPS
Count of elements: 572
Stream size: 20.8 KiB (0%)
Language: Turkish
Default: No
Forced: No

Text #42
ID: 44
Format: UTF-8
Codec ID: S_TEXT/UTF8
Codec ID/Info: UTF-8 Plain Text
Duration: 48 min 8 s
Bit rate: 99 b/s
Frame rate: 0.215 FPS
Count of elements: 621
Stream size: 35.2 KiB (0%)
Language: Ukrainian
Default: No
Forced: No

Text #43
ID: 45
Format: UTF-8
Codec ID: S_TEXT/UTF8
Codec ID/Info: UTF-8 Plain Text
Duration: 48 min 8 s
Bit rate: 79 b/s
Frame rate: 0.215 FPS
Count of elements: 620
Stream size: 28.0 KiB (0%)
Language: Vietnamese
Default: No
Forced: No

Text #44
ID: 46
Format: UTF-8
Codec ID: S_TEXT/UTF8
Codec ID/Info: UTF-8 Plain Text
Duration: 48 min 8 s
Bit rate: 51 b/s
Frame rate: 0.215 FPS
Count of elements: 622
Stream size: 18.0 KiB (0%)
Title: Traditional
Language: Cantonese (Hant)
Default: No
Forced: No

Menu
00:00:00.000: en:Studio Logo
00:00:08.843: en:Recap
00:01:10.947: en:Scene 01
00:03:54.863: en:Intro
00:05:04.530: en:Scene 02
00:46:25.541: en:Credits
ssl  EZTV RSS EZTV Status | EZTV API | DMCA: [email protected]