eztv.wf | eztvstatus.org
Search title:  
TV Packs only
 

Franklin 2024 S01E03 Pride and Gout 1080p ATVP WEB-DL DDP5 1 Atmos H 264-FLUX EZTV

Episode Breakdown
Franklin
Franklin TV Show S01E03

Season: 1
Episode: 3
Air Date: 12 April, 2024
Download Links
     Torrent Download     Magnet Download
     Anonymous Download
Added 3 months ago by eztv (verified).
Tracker Statistics
Seeds: 7
Peers: 1
Stats generated @ 14:44 on 19th Jul 2024
Torrent Info
Torrent File: Franklin 2024 S01E03 Pride and Gout 1080p ATVP WEB-DL DDP5 1 Atmos H 264-FLUX[EZTVx.to].mkv
Torrent Hash: 9E4F0FCEFF6D7DE1D58C6FB5C39823E32F38294E
Filesize: 4.50 GB
Released: 12th Apr 2024

File Format: MKV (Matroska)
Resolution: 1920x1080 px
Aspect Ratio: 16:9
Alternate Releases S L
Franklin 2024 S01E03 1080p HEVC x265-MeGusta 15 1
Franklin 2024 S01E03 1080p WEB H264-SuccessfulCrab 11 1
Franklin 2024 S01E03 MULTI 1080p WEB H264-HiggsBoson 9 0
Franklin 2024 S01E03 XviD-AFG 2 0
Franklin 2024 S01E03 720p x265-T0PAZ 8 0
Franklin 2024 S01E03 720p x264-FENiX 6 2
Franklin 2024 S01E03 1080p x265-ELiTE 7 0

Franklin S01E03 - Pride and Gout

Summary:

Bad news arrives from America. Franklin finds himself ensnared in the traps of Versailles. Temple bows down before a star.



Franklin 2024 S01E03 Pride and Gout 1080p ATVP WEB-DL DDP5 1 Atmos H 264-FLUX EZTV
Franklin S1E3 Screenshot


General
Unique ID: 115454276461437744699139301321699646263 (0x56DBAF50A7F6AD99A30DF13410B25B37)
Complete name: Franklin 2024 S01E03 Pride and Gout 1080p ATVP WEB-DL DDP5 1 Atmos H 264-FLUX.mkv
Format: Matroska
Format version: Version 4
File size: 4.50 GiB
Duration: 59 min 45 s
Overall bit rate: 10.8 Mb/s
Frame rate: 23.976 FPS
Writing application: mkvmerge v83.0 ('Circle Of Friends') 64-bit
Writing library: libebml v1.4.5 + libmatroska v1.7.1

Video
ID: 1
Format: AVC
Format/Info: Advanced Video Codec
Format profile: High@L4
Format settings: CABAC / 4 Ref Frames
Format settings, CABAC: Yes
Format settings, Reference frames: 4 frames
Codec ID: V_MPEG4/ISO/AVC
Duration: 59 min 45 s
Bit rate: 10.0 Mb/s
Width: 1 918 pixels
Height: 872 pixels
Display aspect ratio: 2.2:1
Frame rate mode: Constant
Frame rate: 23.976 (24000/1001) FPS
Color space: YUV
Chroma subsampling: 4:2:0
Bit depth: 8 bits
Scan type: Progressive
Bits/(Pixel*Frame): 0.249
Stream size: 4.17 GiB (93%)
Language: English
Default: Yes
Forced: No
Color range: Limited
Color primaries: BT.709
Transfer characteristics: BT.709
Matrix coefficients: BT.709

Audio
ID: 2
Format: E-AC-3 JOC
Format/Info: Enhanced AC-3 with Joint Object Coding
Commercial name: Dolby Digital Plus with Dolby Atmos
Codec ID: A_EAC3
Duration: 59 min 45 s
Bit rate mode: Constant
Bit rate: 768 kb/s
Channel(s): 6 channels
Channel layout: L R C LFE Ls Rs
Sampling rate: 48.0 kHz
Frame rate: 31.250 FPS (1536 SPF)
Compression mode: Lossy
Stream size: 328 MiB (7%)
Language: English
Service kind: Complete Main
Default: Yes
Forced: No
Complexity index: 16
Number of dynamic objects: 15
Bed channel count: 1 channel
Bed channel configuration: LFE

Text #1
ID: 3
Format: UTF-8
Codec ID: S_TEXT/UTF8
Codec ID/Info: UTF-8 Plain Text
Duration: 53 min 12 s
Bit rate: 20 b/s
Frame rate: 0.075 FPS
Count of elements: 240
Stream size: 7.91 KiB (0%)
Title: Forced
Language: English
Default: Yes
Forced: Yes

Text #2
ID: 4
Format: UTF-8
Codec ID: S_TEXT/UTF8
Codec ID/Info: UTF-8 Plain Text
Duration: 57 min 11 s
Bit rate: 48 b/s
Frame rate: 0.173 FPS
Count of elements: 595
Stream size: 20.4 KiB (0%)
Language: English
Default: No
Forced: No

Text #3
ID: 5
Format: UTF-8
Codec ID: S_TEXT/UTF8
Codec ID/Info: UTF-8 Plain Text
Duration: 57 min 12 s
Bit rate: 60 b/s
Frame rate: 0.219 FPS
Count of elements: 752
Stream size: 25.5 KiB (0%)
Title: SDH
Language: English
Default: No
Forced: No

Text #4
ID: 6
Format: UTF-8
Codec ID: S_TEXT/UTF8
Codec ID/Info: UTF-8 Plain Text
Duration: 56 min 33 s
Bit rate: 42 b/s
Frame rate: 0.170 FPS
Count of elements: 578
Stream size: 17.6 KiB (0%)
Title: SDH
Language: English
Default: No
Forced: No

Text #5
ID: 7
Format: UTF-8
Codec ID: S_TEXT/UTF8
Codec ID/Info: UTF-8 Plain Text
Duration: 59 min 22 s
Bit rate: 68 b/s
Frame rate: 0.169 FPS
Count of elements: 601
Stream size: 30.0 KiB (0%)
Language: Arabic
Default: No
Forced: No

Text #6
ID: 8
Format: UTF-8
Codec ID: S_TEXT/UTF8
Codec ID/Info: UTF-8 Plain Text
Duration: 59 min 22 s
Bit rate: 73 b/s
Frame rate: 0.138 FPS
Count of elements: 493
Stream size: 31.8 KiB (0%)
Language: Bulgarian
Default: No
Forced: No

Text #7
ID: 9
Format: UTF-8
Codec ID: S_TEXT/UTF8
Codec ID/Info: UTF-8 Plain Text
Duration: 59 min 22 s
Bit rate: 42 b/s
Frame rate: 0.169 FPS
Count of elements: 602
Stream size: 18.6 KiB (0%)
Title: Simplified
Language: Chinese (Simplified)
Default: No
Forced: No

Text #8
ID: 10
Format: UTF-8
Codec ID: S_TEXT/UTF8
Codec ID/Info: UTF-8 Plain Text
Duration: 59 min 22 s
Bit rate: 41 b/s
Frame rate: 0.169 FPS
Count of elements: 603
Stream size: 17.9 KiB (0%)
Title: Traditional
Language: Chinese (Traditional)
Default: No
Forced: No

Text #9
ID: 11
Format: UTF-8
Codec ID: S_TEXT/UTF8
Codec ID/Info: UTF-8 Plain Text
Duration: 59 min 22 s
Bit rate: 45 b/s
Frame rate: 0.164 FPS
Count of elements: 584
Stream size: 20.0 KiB (0%)
Language: Czech
Default: No
Forced: No

Text #10
ID: 12
Format: UTF-8
Codec ID: S_TEXT/UTF8
Codec ID/Info: UTF-8 Plain Text
Duration: 59 min 19 s
Bit rate: 49 b/s
Frame rate: 0.155 FPS
Count of elements: 550
Stream size: 21.4 KiB (0%)
Language: Danish
Default: No
Forced: No

Text #11
ID: 13
Format: UTF-8
Codec ID: S_TEXT/UTF8
Codec ID/Info: UTF-8 Plain Text
Duration: 59 min 19 s
Bit rate: 47 b/s
Frame rate: 0.155 FPS
Count of elements: 553
Stream size: 20.8 KiB (0%)
Language: German
Default: No
Forced: No

Text #12
ID: 14
Format: UTF-8
Codec ID: S_TEXT/UTF8
Codec ID/Info: UTF-8 Plain Text
Duration: 59 min 22 s
Bit rate: 83 b/s
Frame rate: 0.163 FPS
Count of elements: 579
Stream size: 36.3 KiB (0%)
Language: Greek
Default: No
Forced: No

Text #13
ID: 15
Format: UTF-8
Codec ID: S_TEXT/UTF8
Codec ID/Info: UTF-8 Plain Text
Duration: 59 min 22 s
Bit rate: 45 b/s
Frame rate: 0.161 FPS
Count of elements: 575
Stream size: 19.7 KiB (0%)
Title: Latin American
Language: Spanish (Latin America)
Default: No
Forced: No

Text #14
ID: 16
Format: UTF-8
Codec ID: S_TEXT/UTF8
Codec ID/Info: UTF-8 Plain Text
Duration: 59 min 22 s
Bit rate: 45 b/s
Frame rate: 0.163 FPS
Count of elements: 581
Stream size: 19.8 KiB (0%)
Language: Spanish (ES)
Default: No
Forced: No

Text #15
ID: 17
Format: UTF-8
Codec ID: S_TEXT/UTF8
Codec ID/Info: UTF-8 Plain Text
Duration: 59 min 22 s
Bit rate: 46 b/s
Frame rate: 0.168 FPS
Count of elements: 597
Stream size: 20.3 KiB (0%)
Language: Estonian
Default: No
Forced: No

Text #16
ID: 18
Format: UTF-8
Codec ID: S_TEXT/UTF8
Codec ID/Info: UTF-8 Plain Text
Duration: 59 min 19 s
Bit rate: 46 b/s
Frame rate: 0.168 FPS
Count of elements: 599
Stream size: 20.2 KiB (0%)
Language: Finnish
Default: No
Forced: No

Text #17
ID: 19
Format: UTF-8
Codec ID: S_TEXT/UTF8
Codec ID/Info: UTF-8 Plain Text
Duration: 58 min 53 s
Bit rate: 61 b/s
Frame rate: 0.221 FPS
Count of elements: 781
Stream size: 26.7 KiB (0%)
Title: Canadian
Language: French (CA)
Default: No
Forced: No

Text #18
ID: 20
Format: UTF-8
Codec ID: S_TEXT/UTF8
Codec ID/Info: UTF-8 Plain Text
Duration: 59 min 20 s
Bit rate: 52 b/s
Frame rate: 0.188 FPS
Count of elements: 668
Stream size: 23.0 KiB (0%)
Language: French (FR)
Default: No
Forced: No

Text #19
ID: 21
Format: UTF-8
Codec ID: S_TEXT/UTF8
Codec ID/Info: UTF-8 Plain Text
Duration: 59 min 22 s
Bit rate: 67 b/s
Frame rate: 0.169 FPS
Count of elements: 602
Stream size: 29.4 KiB (0%)
Language: Hebrew
Default: No
Forced: No

Text #20
ID: 22
Format: UTF-8
Codec ID: S_TEXT/UTF8
Codec ID/Info: UTF-8 Plain Text
Duration: 59 min 22 s
Bit rate: 132 b/s
Frame rate: 0.169 FPS
Count of elements: 603
Stream size: 57.4 KiB (0%)
Language: Hindi
Default: No
Forced: No

Text #21
ID: 23
Format: UTF-8
Codec ID: S_TEXT/UTF8
Codec ID/Info: UTF-8 Plain Text
Duration: 59 min 22 s
Bit rate: 51 b/s
Frame rate: 0.168 FPS
Count of elements: 598
Stream size: 22.2 KiB (0%)
Language: Hungarian
Default: No
Forced: No

Text #22
ID: 24
Format: UTF-8
Codec ID: S_TEXT/UTF8
Codec ID/Info: UTF-8 Plain Text
Duration: 59 min 15 s
Bit rate: 49 b/s
Frame rate: 0.168 FPS
Count of elements: 599
Stream size: 21.3 KiB (0%)
Language: Indonesian
Default: No
Forced: No

Text #23
ID: 25
Format: UTF-8
Codec ID: S_TEXT/UTF8
Codec ID/Info: UTF-8 Plain Text
Duration: 59 min 22 s
Bit rate: 47 b/s
Frame rate: 0.168 FPS
Count of elements: 600
Stream size: 20.7 KiB (0%)
Language: Italian
Default: No
Forced: No

Text #24
ID: 26
Format: UTF-8
Codec ID: S_TEXT/UTF8
Codec ID/Info: UTF-8 Plain Text
Duration: 59 min 22 s
Bit rate: 45 b/s
Frame rate: 0.182 FPS
Count of elements: 648
Stream size: 19.8 KiB (0%)
Language: Japanese
Default: No
Forced: No

Text #25
ID: 27
Format: UTF-8
Codec ID: S_TEXT/UTF8
Codec ID/Info: UTF-8 Plain Text
Duration: 59 min 22 s
Bit rate: 50 b/s
Frame rate: 0.169 FPS
Count of elements: 601
Stream size: 21.9 KiB (0%)
Language: Korean
Default: No
Forced: No

Text #26
ID: 28
Format: UTF-8
Codec ID: S_TEXT/UTF8
Codec ID/Info: UTF-8 Plain Text
Duration: 59 min 22 s
Bit rate: 48 b/s
Frame rate: 0.169 FPS
Count of elements: 602
Stream size: 21.1 KiB (0%)
Language: Lithuanian
Default: No
Forced: No

Text #27
ID: 29
Format: UTF-8
Codec ID: S_TEXT/UTF8
Codec ID/Info: UTF-8 Plain Text
Duration: 59 min 22 s
Bit rate: 48 b/s
Frame rate: 0.167 FPS
Count of elements: 595
Stream size: 21.0 KiB (0%)
Language: Latvian
Default: No
Forced: No

Text #28
ID: 30
Format: UTF-8
Codec ID: S_TEXT/UTF8
Codec ID/Info: UTF-8 Plain Text
Duration: 59 min 22 s
Bit rate: 46 b/s
Frame rate: 0.169 FPS
Count of elements: 601
Stream size: 20.2 KiB (0%)
Language: Malay
Default: No
Forced: No

Text #29
ID: 31
Format: UTF-8
Codec ID: S_TEXT/UTF8
Codec ID/Info: UTF-8 Plain Text
Duration: 59 min 19 s
Bit rate: 45 b/s
Frame rate: 0.145 FPS
Count of elements: 516
Stream size: 19.7 KiB (0%)
Language: Dutch
Default: No
Forced: No

Text #30
ID: 32
Format: UTF-8
Codec ID: S_TEXT/UTF8
Codec ID/Info: UTF-8 Plain Text
Duration: 59 min 15 s
Bit rate: 45 b/s
Frame rate: 0.155 FPS
Count of elements: 552
Stream size: 19.7 KiB (0%)
Language: Norwegian
Default: No
Forced: No

Text #31
ID: 33
Format: UTF-8
Codec ID: S_TEXT/UTF8
Codec ID/Info: UTF-8 Plain Text
Duration: 59 min 22 s
Bit rate: 48 b/s
Frame rate: 0.168 FPS
Count of elements: 598
Stream size: 21.3 KiB (0%)
Language: Polish
Default: No
Forced: No

Text #32
ID: 34
Format: UTF-8
Codec ID: S_TEXT/UTF8
Codec ID/Info: UTF-8 Plain Text
Duration: 59 min 22 s
Bit rate: 49 b/s
Frame rate: 0.168 FPS
Count of elements: 600
Stream size: 21.4 KiB (0%)
Language: Portuguese
Default: No
Forced: No

Text #33
ID: 35
Format: UTF-8
Codec ID: S_TEXT/UTF8
Codec ID/Info: UTF-8 Plain Text
Duration: 59 min 22 s
Bit rate: 45 b/s
Frame rate: 0.161 FPS
Count of elements: 575
Stream size: 19.9 KiB (0%)
Title: Brazilian
Language: Portuguese (BR)
Default: No
Forced: No

Text #34
ID: 36
Format: UTF-8
Codec ID: S_TEXT/UTF8
Codec ID/Info: UTF-8 Plain Text
Duration: 59 min 22 s
Bit rate: 73 b/s
Frame rate: 0.163 FPS
Count of elements: 581
Stream size: 31.8 KiB (0%)
Language: Russian
Default: No
Forced: No

Text #35
ID: 37
Format: UTF-8
Codec ID: S_TEXT/UTF8
Codec ID/Info: UTF-8 Plain Text
Duration: 59 min 22 s
Bit rate: 45 b/s
Frame rate: 0.167 FPS
Count of elements: 595
Stream size: 19.6 KiB (0%)
Language: Slovak
Default: No
Forced: No

Text #36
ID: 38
Format: UTF-8
Codec ID: S_TEXT/UTF8
Codec ID/Info: UTF-8 Plain Text
Duration: 59 min 22 s
Bit rate: 40 b/s
Frame rate: 0.156 FPS
Count of elements: 555
Stream size: 17.8 KiB (0%)
Language: Slovenian
Default: No
Forced: No

Text #37
ID: 39
Format: UTF-8
Codec ID: S_TEXT/UTF8
Codec ID/Info: UTF-8 Plain Text
Duration: 59 min 19 s
Bit rate: 48 b/s
Frame rate: 0.165 FPS
Count of elements: 589
Stream size: 21.1 KiB (0%)
Language: Swedish
Default: No
Forced: No

Text #38
ID: 40
Format: UTF-8
Codec ID: S_TEXT/UTF8
Codec ID/Info: UTF-8 Plain Text
Duration: 59 min 22 s
Bit rate: 166 b/s
Frame rate: 0.169 FPS
Count of elements: 602
Stream size: 72.5 KiB (0%)
Language: Tamil
Default: No
Forced: No

Text #39
ID: 41
Format: UTF-8
Codec ID: S_TEXT/UTF8
Codec ID/Info: UTF-8 Plain Text
Duration: 59 min 22 s
Bit rate: 145 b/s
Frame rate: 0.169 FPS
Count of elements: 602
Stream size: 63.2 KiB (0%)
Language: Telugu
Default: No
Forced: No

Text #40
ID: 42
Format: UTF-8
Codec ID: S_TEXT/UTF8
Codec ID/Info: UTF-8 Plain Text
Duration: 59 min 22 s
Bit rate: 113 b/s
Frame rate: 0.169 FPS
Count of elements: 602
Stream size: 49.1 KiB (0%)
Language: Thai
Default: No
Forced: No

Text #41
ID: 43
Format: UTF-8
Codec ID: S_TEXT/UTF8
Codec ID/Info: UTF-8 Plain Text
Duration: 59 min 22 s
Bit rate: 45 b/s
Frame rate: 0.157 FPS
Count of elements: 561
Stream size: 19.9 KiB (0%)
Language: Turkish
Default: No
Forced: No

Text #42
ID: 44
Format: UTF-8
Codec ID: S_TEXT/UTF8
Codec ID/Info: UTF-8 Plain Text
Duration: 59 min 22 s
Bit rate: 78 b/s
Frame rate: 0.169 FPS
Count of elements: 603
Stream size: 33.9 KiB (0%)
Language: Ukrainian
Default: No
Forced: No

Text #43
ID: 45
Format: UTF-8
Codec ID: S_TEXT/UTF8
Codec ID/Info: UTF-8 Plain Text
Duration: 59 min 22 s
Bit rate: 62 b/s
Frame rate: 0.169 FPS
Count of elements: 601
Stream size: 27.0 KiB (0%)
Language: Vietnamese
Default: No
Forced: No

Text #44
ID: 46
Format: UTF-8
Codec ID: S_TEXT/UTF8
Codec ID/Info: UTF-8 Plain Text
Duration: 59 min 22 s
Bit rate: 39 b/s
Frame rate: 0.169 FPS
Count of elements: 603
Stream size: 17.1 KiB (0%)
Title: Traditional
Language: Cantonese (Hant)
Default: No
Forced: No

Menu
00:00:00.000: en:Studio Logo
00:00:08.843: en:Recap
00:00:56.391: en:Scene 01
00:02:40.432: en:Intro
00:03:50.057: en:Scene 02
00:57:37.458: en:Credits
ssl  EZTV RSS EZTV Status | EZTV API | DMCA: [email protected]